Кожа, в которой я живу [Blu-Ray] / La piel que habito (2011) BD Remux

[Всего: 0   Средний:  0/5]

[Sassy_Social_Share]

7 просмотров

Размер: 35.47 GB

Дата: 26.10.2018

Великий пластический хирург Роберт Ледгард представляет коллегам революционную разработку — искусственную кожу, которая не горит в огне и отпугивает комаров. Коллеги поражены, но руководство, узнав, что результат достигнут с помощью генной инженерии, приказывает свернуть проект. Доктор Роберт опечален, но в меру: в домашней лаборатории под присмотром верной прислуги у него уже несколько лет как живет очаровательная девушка Вера, целиком сшитая из экспериментальной кожВеликий пластический хирург Роберт Ледгард представляет коллегам революционную разработку — искусственную кожу, которая не горит в огне и отпугивает комаров. Коллеги поражены, но руководство, узнав, что результат достигнут с помощью генной инженерии, приказывает свернуть проект. Доктор Роберт опечален, но в меру: в домашней лаборатории под присмотром верной прислуги у него уже несколько лет как живет очаровательная девушка Вера, целиком сшитая из экспериментальной кожи.

Жанр: триллер, драма

АудиоАудио 1: DTS-HD Master Audio Russian 2015 kbps 5.1 / 48 kHz / 2015 kbps / 16-bit (DTS Core: 5.1 / 48 kHz / 1509 kbps / 16-bit)
Аудио 2: DTS-HD Master Audio Spanish 1968 kbps 5.1 / 48 kHz / 1968 kbps / 16-bit (DTS Core: 5.1 / 48 kHz / 1509 kbps / 16-bit)
Аудио 3: Dolby TrueHD Audio Russian 1335 kbps 5.1 / 48 kHz / 1335 kbps / 16-bit (AC3 Embedded: 5.1 / 48 kHz / 640 kbps)
Аудио 4: Dolby Digital Audio Russian 224 kbps 2.0 / 48 kHz / 224 kbps СубтитрыPresentation Graphics Russian 29,493 kbps МенюАнимированное: Главное меню, Меню выбора эпизодов, Меню выбора звука и субтитров, Меню дополнительных материалов. BDInfoDisc Title: LA_PIEL_HDCLUB
Disc Size: 38 082 523 352 bytes
Protection: AACS
BD-Java: No
BDInfo: 0.5.6
Notes:
BDINFO HOME:
Cinema Squid
http://www.cinemasquid.com/blu-ray/tools/bdinfo
INCLUDES FORUMS REPORT FOR:
AVS Forum Blu-ray Audio and Video Specifications Thread
http://www.avsforum.com/avs-vb/showthread.php?t=1155731
********************
PLAYLIST: 00002.MPLS
********************
<— BEGIN FORUMS PASTE —>

Код написал(а):Total Video
Title Codec Length Movie Size Disc Size Bitrate Bitrate Main Audio Track Secondary Audio Track
—— —— ——- ————— ————— ——- ——- —————— ———————
00002.MPLS AVC 2:00:10 35 257 393 152 38 082 523 352 39,12 30,00 DTS-HD Master 5.1 2015Kbps (48kHz/16-bit) Dolby TrueHD 5.1 1335Kbps (48kHz/16-bit) Код написал(а):DISC INFO:
Disc Title: LA_PIEL
Disc Size: 38 082 523 352 bytes
Protection: AACS
BD-Java: No
BDInfo: 0.5.6
PLAYLIST REPORT:
Name: 00002.MPLS
Length: 2:00:10 (h:m:s)
Size: 35 257 393 152 bytes
Total Bitrate: 39,12 Mbps
VIDEO:
Codec Bitrate Desc_ription
—— ——- ————
MPEG-4 AVC Video 30000 kbps 1080p / 24 fps / 16:9 / High Profile 4.1
AUDIO:
Codec Language Bitrate Desc_ription
—— ——— ——- ————
DTS-HD Master Audio Russian 2015 kbps 5.1 / 48 kHz / 2015 kbps / 16-bit (DTS Core: 5.1 / 48 kHz / 1509 kbps / 16-bit)
DTS-HD Master Audio Spanish 1968 kbps 5.1 / 48 kHz / 1968 kbps / 16-bit (DTS Core: 5.1 / 48 kHz / 1509 kbps / 16-bit)
Dolby TrueHD Audio Russian 1335 kbps 5.1 / 48 kHz / 1335 kbps / 16-bit (AC3 Embedded: 5.1 / 48 kHz / 640 kbps)
Dolby Digital Audio Russian 224 kbps 2.0 / 48 kHz / 224 kbps
SUBTITLES:
Codec Language Bitrate Desc_ription
—— ——— ——- ————
Presentation Graphics Russian 29,493 kbps
FILES:
Name Time In Length Size Total Bitrate
—- ——- —— —- ————-
00005.M2TS 0:00:00.000 2:00:10.166 35 257 393 152 39 120
CHAPTERS:
Number Time In Length Avg Video Rate Max 1-Sec Rate Max 1-Sec Time Max 5-Sec Rate Max 5-Sec Time Max 10Sec Rate Max 10Sec Time Avg Frame Size Max Frame Size Max Frame Time
—— ——- —— ————— ————— ————— ————— ————— ————— ————— ————— ————— —————
1 0:00:00.000 0:08:11.625 30 029 kbps 39 929 kbps 00:02:01.083 33 104 kbps 00:02:00.166 31 823 kbps 00:00:39.541 156 390 bytes 591 544 bytes 00:00:48.541
2 0:08:11.625 0:06:56.333 29 989 kbps 36 117 kbps 00:08:37.708 31 851 kbps 00:13:45.083 30 986 kbps 00:13:45.666 156 191 bytes 474 851 bytes 00:11:14.000
3 0:15:07.958 0:06:46.125 29 990 kbps 37 010 kbps 00:17:33.458 32 436 kbps 00:17:30.791 31 331 kbps 00:18:31.041 156 196 bytes 469 535 bytes 00:17:30.541
4 0:21:54.083 0:06:53.500 30 021 kbps 39 431 kbps 00:25:10.749 32 684 kbps 00:25:07.791 31 364 kbps 00:25:02.791 156 362 bytes 509 214 bytes 00:26:23.208
5 0:28:47.583 0:08:16.500 29 993 kbps 37 931 kbps 00:32:16.708 31 970 kbps 00:32:15.916 31 154 kbps 00:32:16.249 156 215 bytes 486 476 bytes 00:31:11.791
6 0:37:04.083 0:07:50.666 29 986 kbps 39 521 kbps 00:38:42.083 32 469 kbps 00:38:45.875 31 292 kbps 00:38:45.875 156 179 bytes 530 011 bytes 00:41:27.666
7 0:44:54.750 0:07:41.708 30 013 kbps 36 534 kbps 00:50:16.291 32 346 kbps 00:50:20.958 31 201 kbps 00:50:15.916 156 317 bytes 490 572 bytes 00:50:10.333
8 0:52:36.458 0:07:12.374 30 011 kbps 37 392 kbps 00:53:30.291 31 827 kbps 00:53:26.375 31 193 kbps 00:53:24.208 156 306 bytes 458 898 bytes 00:57:47.583
9 0:59:48.833 0:09:00.250 29 980 kbps 40 170 kbps 01:06:35.083 32 322 kbps 01:06:31.250 31 253 kbps 01:08:17.041 156 148 bytes 531 625 bytes 01:07:23.625
10 1:08:49.083 0:07:52.291 30 015 kbps 39 812 kbps 01:12:08.125 32 585 kbps 01:16:34.041 31 277 kbps 01:11:09.291 156 327 bytes 524 411 bytes 01:10:35.416
11 1:16:41.375 0:07:45.166 29 990 kbps 39 514 kbps 01:20:31.708 32 330 kbps 01:20:28.708 31 162 kbps 01:23:07.541 156 196 bytes 536 668 bytes 01:19:00.000
12 1:24:26.541 0:07:33.333 29 995 kbps 37 975 kbps 01:25:59.083 32 104 kbps 01:25:55.125 31 471 kbps 01:27:19.416 156 226 bytes 544 510 bytes 01:27:19.458
13 1:31:59.875 0:07:45.000 30 009 kbps 38 447 kbps 01:36:23.583 32 800 kbps 01:36:21.000 31 436 kbps 01:36:15.958 156 298 bytes 536 717 bytes 01:35:35.750
14 1:39:44.875 0:07:26.000 29 992 kbps 39 122 kbps 01:41:26.333 32 984 kbps 01:46:00.208 31 527 kbps 01:44:57.291 156 206 bytes 500 980 bytes 01:44:59.333
15 1:47:10.875 0:06:39.000 29 986 kbps 38 028 kbps 01:48:48.916 32 203 kbps 01:49:33.291 31 058 kbps 01:48:25.250 156 179 bytes 543 886 bytes 01:53:13.875
16 1:53:49.875 0:06:20.291 29 993 kbps 32 889 kbps 01:58:06.833 30 643 kbps 01:58:03.916 30 507 kbps 01:57:58.833 156 231 bytes 387 212 bytes 01:58:07.875
STREAM DIAGNOSTICS:
File PID Type Codec Language Seconds Bitrate Bytes Packets
—- — —- —— ——— ————— ————— ————- ——
00005.M2TS 4113 (0x1011) 0x1B AVC 7210,000 30 000 27 037 778 938 147 046 561
00005.M2TS 4352 (0x1100) 0x86 DTS-HD MA rus (Russian) 7210,000 2 015 1 815 910 436 10 996 857
00005.M2TS 4353 (0x1101) 0x81 AC3 rus (Russian) 7210,000 224 201 888 512 1 126 610
00005.M2TS 4354 (0x1102) 0x83 TrueHD rus (Russian) 7210,000 1 975 1 779 698 946 13 301 834
00005.M2TS 4355 (0x1103) 0x86 DTS-HD MA spa (Spanish) 7210,000 1 968 1 774 089 644 10 767 099
00005.M2TS 4608 (0x1200) 0x90 PGS rus (Russian) 7210,000 29 26 581 126 151 717

<—- END FORUMS PASTE —->
QUICK SUMMARY:
Disc Title: LA_PIEL
Disc Size: 38 082 523 352 bytes
Protection: AACS
BD-Java: No
Playlist: 00002.MPLS
Size: 35 257 393 152 bytes
Length: 2:00:10
Total Bitrate: 39,12 Mbps
Video: MPEG-4 AVC Video / 30000 kbps / 1080p / 24 fps / 16:9 / High Profile 4.1
Audio: Russian / DTS-HD Master Audio / 5.1 / 48 kHz / 2015 kbps / 16-bit (DTS Core: 5.1 / 48 kHz / 1509 kbps / 16-bit)
Audio: Spanish / DTS-HD Master Audio / 5.1 / 48 kHz / 1968 kbps / 16-bit (DTS Core: 5.1 / 48 kHz / 1509 kbps / 16-bit)
Audio: Russian / Dolby TrueHD Audio / 5.1 / 48 kHz / 1335 kbps / 16-bit (AC3 Embedded: 5.1 / 48 kHz / 640 kbps)
Audio: Russian / Dolby Digital Audio / 2.0 / 48 kHz / 224 kbps
Subtitle: Russian / 29,493 kbps
********************
PLAYLIST: 00004.MPLS
********************
<— BEGIN FORUMS PASTE —>

Код написал(а):Total Video
Title Codec Length Movie Size Disc Size Bitrate Bitrate Main Audio Track Secondary Audio Track
—— —— ——- ————— ————— ——- ——- —————— ———————
00004.MPLS MPEG-2 0:12:48 2 636 040 192 38 082 523 352 27,46 23,48 DD AC3 2.0 640Kbps Код написал(а):DISC INFO:
Disc Title: LA_PIEL
Disc Size: 38 082 523 352 bytes
Protection: AACS
BD-Java: No
BDInfo: 0.5.6
PLAYLIST REPORT:
Name: 00004.MPLS
Length: 0:12:48 (h:m:s)
Size: 2 636 040 192 bytes
Total Bitrate: 27,46 Mbps
VIDEO:
Codec Bitrate Desc_ription
—— ——- ————
MPEG-2 Video 23483 kbps 1080p / 23,976 fps / 16:9
AUDIO:
Codec Language Bitrate Desc_ription
—— ——— ——- ————
Dolby Digital Audio Russian 640 kbps 2.0 / 48 kHz / 640 kbps / DN -4dB
Dolby Digital Audio Russian 640 kbps 2.0 / 48 kHz / 640 kbps / DN -4dB
Dolby Digital Audio Russian 640 kbps 2.0 / 48 kHz / 640 kbps / DN -4dB
Dolby Digital Audio Spanish 640 kbps 2.0 / 48 kHz / 640 kbps / DN -4dB
SUBTITLES:
Codec Language Bitrate Desc_ription
—— ——— ——- ————
Presentation Graphics Russian 0,047 kbps
FILES:
Name Time In Length Size Total Bitrate
—- ——- —— —- ————-
00007.M2TS 0:00:00.000 0:12:48.058 2 636 040 192 27 457
CHAPTERS:
Number Time In Length Avg Video Rate Max 1-Sec Rate Max 1-Sec Time Max 5-Sec Rate Max 5-Sec Time Max 10Sec Rate Max 10Sec Time Avg Frame Size Max Frame Size Max Frame Time
—— ——- —— ————— ————— ————— ————— ————— ————— ————— ————— ————— —————
1 0:00:00.000 0:00:36.286 24 896 kbps 31 805 kbps 00:00:25.233 28 978 kbps 00:00:09.592 28 150 kbps 00:00:04.629 129 646 bytes 618 320 bytes 00:00:22.480
2 0:00:36.286 0:00:55.305 24 714 kbps 39 566 kbps 00:01:04.064 30 429 kbps 00:01:03.855 27 843 kbps 00:00:49.382 128 845 bytes 639 094 bytes 00:00:53.762
3 0:01:31.591 0:00:53.053 23 535 kbps 34 687 kbps 00:02:05.333 28 053 kbps 00:02:04.040 25 824 kbps 00:02:02.831 122 703 bytes 610 626 bytes 00:02:06.334
4 0:02:24.644 0:01:24.375 24 111 kbps 35 979 kbps 00:02:50.378 29 929 kbps 00:02:56.759 29 023 kbps 00:02:55.383 125 706 bytes 526 171 bytes 00:02:53.882
5 0:03:49.020 0:01:08.109 21 060 kbps 31 267 kbps 00:04:10.500 28 427 kbps 00:04:10.333 25 908 kbps 00:04:10.166 109 795 bytes 478 444 bytes 00:04:17.090
6 0:04:57.130 0:01:12.614 22 414 kbps 31 715 kbps 00:05:28.870 28 127 kbps 00:05:24.866 27 165 kbps 00:05:19.861 116 858 bytes 512 287 bytes 00:04:59.007
7 0:06:09.744 0:01:22.707 25 322 kbps 31 249 kbps 00:06:24.967 29 129 kbps 00:07:12.265 28 261 kbps 00:07:09.137 132 018 bytes 500 440 bytes 00:06:51.619
8 0:07:32.452 0:01:29.339 21 769 kbps 37 803 kbps 00:07:40.668 29 508 kbps 00:07:40.626 28 343 kbps 00:07:40.626 113 496 bytes 721 375 bytes 00:08:29.842
9 0:09:01.791 0:01:47.273 22 435 kbps 33 067 kbps 00:09:26.399 29 131 kbps 00:09:57.638 28 461 kbps 00:09:54.427 116 965 bytes 554 821 bytes 00:09:28.025
10 0:10:49.065 0:01:58.993 25 002 kbps 32 099 kbps 00:12:29.749 29 961 kbps 00:12:28.581 28 789 kbps 00:12:28.497 130 396 bytes 579 796 bytes 00:11:16.884
STREAM DIAGNOSTICS:
File PID Type Codec Language Seconds Bitrate Bytes Packets
—- — —- —— ——— ————— ————— ————- ——
00007.M2TS 4113 (0x1011) 0x02 MPEG-2 767,976 23 485 2 254 520 719 12 263 461
00007.M2TS 4352 (0x1100) 0x81 AC3 rus (Russian) 767,976 640 61 445 120 360 030
00007.M2TS 4353 (0x1101) 0x81 AC3 rus (Russian) 767,976 640 61 445 120 360 030
00007.M2TS 4354 (0x1102) 0x81 AC3 rus (Russian) 767,976 640 61 445 120 360 030
00007.M2TS 4355 (0x1103) 0x81 AC3 spa (Spanish) 767,976 640 61 445 120 360 030
00007.M2TS 4608 (0x1200) 0x90 PGS rus (Russian) 767,976 0 4 483 32

<—- END FORUMS PASTE —->
QUICK SUMMARY:
Disc Title: LA_PIEL
Disc Size: 38 082 523 352 bytes
Protection: AACS
BD-Java: No
Playlist: 00004.MPLS
Size: 2 636 040 192 bytes
Length: 0:12:48
Total Bitrate: 27,46 Mbps
Video: MPEG-2 Video / 23483 kbps / 1080p / 23,976 fps / 16:9
Audio: Russian / Dolby Digital Audio / 2.0 / 48 kHz / 640 kbps / DN -4dB
Audio: Russian / Dolby Digital Audio / 2.0 / 48 kHz / 640 kbps / DN -4dB
Audio: Russian / Dolby Digital Audio / 2.0 / 48 kHz / 640 kbps / DN -4dB
Audio: Spanish / Dolby Digital Audio / 2.0 / 48 kHz / 640 kbps / DN -4dB
Subtitle: Russian / 0,047 kbps
********************
PLAYLIST: 00000.MPLS
********************
<— BEGIN FORUMS PASTE —>

Код написал(а):Total Video
Title Codec Length Movie Size Disc Size Bitrate Bitrate Main Audio Track Secondary Audio Track
—— —— ——- ————— ————— ——- ——- —————— ———————
00000.MPLS AVC 0:00:23 27 475 968 38 082 523 352 9,28 8,63 DD AC3 2.0 256Kbps Код написал(а):DISC INFO:
Disc Title: LA_PIEL
Disc Size: 38 082 523 352 bytes
Protection: AACS
BD-Java: No
BDInfo: 0.5.6
PLAYLIST REPORT:
Name: 00000.MPLS
Length: 0:00:23 (h:m:s)
Size: 27 475 968 bytes
Total Bitrate: 9,28 Mbps
VIDEO:
Codec Bitrate Desc_ription
—— ——- ————
MPEG-4 AVC Video 8626 kbps 1080p / 23,976 fps / 16:9 / High Profile 4.1
AUDIO:
Codec Language Bitrate Desc_ription
—— ——— ——- ————
Dolby Digital Audio Russian 256 kbps 2.0 / 48 kHz / 256 kbps / DN -4dB
FILES:
Name Time In Length Size Total Bitrate
—- ——- —— —- ————-
00000.M2TS 0:00:00.000 0:00:07.006 1 603 584 1 831
00001.M2TS 0:00:07.006 0:00:16.683 25 872 384 12 406
CHAPTERS:
Number Time In Length Avg Video Rate Max 1-Sec Rate Max 1-Sec Time Max 5-Sec Rate Max 5-Sec Time Max 10Sec Rate Max 10Sec Time Avg Frame Size Max Frame Size Max Frame Time
—— ——- —— ————— ————— ————— ————— ————— ————— ————— ————— ————— —————
1 0:00:00.000 0:00:23.690 8 626 kbps 21 534 kbps 00:00:14.139 13 638 kbps 00:00:07.257 13 383 kbps 00:00:07.173 44 974 bytes 321 699 bytes 00:00:14.514
STREAM DIAGNOSTICS:
File PID Type Codec Language Seconds Bitrate Bytes Packets
—- — —- —— ——— ————— ————— ————- ——
00000.M2TS 4113 (0x1011) 0x1B AVC 6,882 1 720 1 479 975 8 105
00001.M2TS 4113 (0x1011) 0x1B AVC 16,600 11 598 24 065 355 131 020
00001.M2TS 4352 (0x1100) 0x81 AC3 rus (Russian) 16,600 258 534 528 3 132

<—- END FORUMS PASTE —->
QUICK SUMMARY:
Disc Title: LA_PIEL
Disc Size: 38 082 523 352 bytes
Protection: AACS
BD-Java: No
Playlist: 00000.MPLS
Size: 27 475 968 bytes
Length: 0:00:23
Total Bitrate: 9,28 Mbps
Video: MPEG-4 AVC Video / 8626 kbps / 1080p / 23,976 fps / 16:9 / High Profile 4.1
Audio: Russian / Dolby Digital Audio / 2.0 / 48 kHz / 256 kbps / DN -4dB Скриншоты меню Обложка и блинhttp://multi-up.com/608907

Качество: BD Remux
Формат: Other
Видео: MPEG-4 AVC VC (.m2ts), 30.0 Мбит/с, 1920×1080, 24.000 кадр/с
Звук: См. в описании
Размер: 35.47 GB
Файлов: 40 [Древовидный список] [Линейный список]
Начало раздачи: 11 Декабря 2011 в 10:12
Раздает: _SalamoN_