Джими Хендрикс — Наконец…Начало: Создание Electric Ladyland / Jimi Hendrix — At Last… The Beginning: The Making Of Electric Ladyland (2008) DVD-5


[Всего голосов: 0    Средний: 0/5]

0 просмотров

Размер: 4.36 GB

Дата: 29.10.2018

Джими Хендрикс - Наконец...Начало: Создание Electric Ladyland / Jimi Hendrix - At Last… The Beginning: The Making Of Electric Ladyland (2008) DVD-5
Джими Хендрикс — Наконец…Начало: Создание Electric Ladyland / Jimi Hendrix — At Last… The Beginning: The Making Of Electric Ladyland (2008) DVD-5 Джими Хендрикс — Наконец…Начало: Создание Electric Ladyland / Jimi Hendrix — At Last… The Beginning: The Making Of Electric Ladyland (2008) DVD-5 Джими Хендрикс — Наконец…Начало: Создание Electric Ladyland / Jimi Hendrix — At Last… The Beginning: The Making Of Electric Ladyland (2008) DVD-5

1968 год… Давно… Первоначально данный материал был издан на 2-ух "долгоиграющих пластинках", но спросом они не пользовались, т.к. мало кому было интересно слушать размышления Друзей и Продюссеров, а не игру Джими! В 1997 году был создан сериал, в серии "Classic Albums". И он разошелся достаточно мелким тиражем, т.к. качество видео и, главное, Звука — оставляли желать лучшего…… В 2008, наконец то, вышел данный релиз на DVD — который содержит полную версию тех двух LP, полные версии выступлений Джимми, интервью с Друзьями… Поклонникам — MUST HAVE! Оригинальное описание с диска"At Last… The Beginning: The Making Of Electric Ladyland" documents the creation of the album that was released in the fall of 1968 as a 2-LP set. Some of Jimi’s closest associates are seen on screen discussing their recollections of Hendrix and the project including JHE bassist Noel Redding, drummer Mitch Mitchell, manager Chas Chandler who discovered Hendrix after he left The Animals; drummer Buddy Miles who appeared on the album and later went on to work with Hendrix in The Band Of Gypsys, Jefferson Airplane’s Jack Casady, Steve Winwood and Dave Mason from Traffic and others who participated in the "Electric Ladyland" sessions that took place at Olympic studios in London and the Record Plant in New York. One of the highlights of the program includes a session with original "Electric Ladyland" engineer Eddie Kramer who discusses the techniques Hendrix, Mitchell and Redding employed in recording "Electric Ladyland" and playing some of the original multitrack tapes to illustrate the process.

Originally produced in 1997 as the premiere episode of the acclaimed "Classic Albums" television series, "The Making Of Electric Ladyland" is newly edited with expanded features and almost 40 minutes of additional content not seen in the original feature. Трек лист:01. Prologue
02. Burning of the Midnight Lamp
03. …And The Gods Made Love
04. All Along The Watchtower
05. Rainy Day, Dream Away
06. Still Raining, Still Dreaming
07. Voodoo Chile
08. Crosstown Traffic
09. Voodoo Chile (Slight Return)
10. Little Miss Strange
11. Gypsy Eyes
12. South Saturn Delta
13. House Burning Down
14. 1983… (A Merman I Should Turn To Be)
15. Long Hot Summer Night
16. Have You Ever Been (To Electric Ladyland)
17. Epilogue MediaInfo:Общее
Полное имя : E:Jimi_Hendrix-At_Last-2008VIDEO_TSVIDEO_TS.BUP
Формат : DVD Video
Профиль формата : Menu
Размер файла : 14,0 Кбайт
Режим общего битрейта : Переменный

Видео
Идентификатор : 224 (0xE0)
Формат : MPEG Video
Версия формата : Version 2
Вид битрейта : Переменный
Ширина : 720 пикселей
Высота : 480 пикселей
Соотношение сторон : 4:3
Частота кадров : 29,970 кадров/сек
Стандарт вещания : NTSC
Метод сжатия : С потерями

Текст
Формат : RLE
Формат/Информация : Run-length encoding
Битовая глубина : 2 бит

Общее
Полное имя : E:Jimi_Hendrix-At_Last-2008VIDEO_TSVIDEO_TS.IFO
Формат : DVD Video
Профиль формата : Menu
Размер файла : 14,0 Кбайт
Режим общего битрейта : Переменный

Видео
Идентификатор : 224 (0xE0)
Формат : MPEG Video
Версия формата : Version 2
Вид битрейта : Переменный
Ширина : 720 пикселей
Высота : 480 пикселей
Соотношение сторон : 4:3
Частота кадров : 29,970 кадров/сек
Стандарт вещания : NTSC
Метод сжатия : С потерями

Текст
Формат : RLE
Формат/Информация : Run-length encoding
Битовая глубина : 2 бит

Общее
Полное имя : E:Jimi_Hendrix-At_Last-2008VIDEO_TSVIDEO_TS.VOB
Формат : MPEG-PS
Размер файла : 34,0 Кбайт
Продолжительность : 400 мс.
Общий поток : 696 Кбит/сек

Видео
Идентификатор : 224 (0xE0)
Формат : MPEG Video
Версия формата : Version 2
Профиль формата : Main@Main
Параметр BVOP формата : Да
Параметр матрицы формата : Выборочная
Продолжительность : 400 мс.
Максимальный битрейт : 2000 Кбит/сек
Ширина : 720 пикселей
Высота : 480 пикселей
Соотношение сторон : 4:3
Частота кадров : 29,970 кадров/сек
Стандарт вещания : NTSC
Цветовое пространство : YUV
Субдискретизация насыщенности : 4:2:0
Битовая глубина : 8 бит
Тип развёртки : Чересстрочная
Порядок развёртки : Верхнее поле первое
Метод сжатия : С потерями

Текст
Идентификатор : 189 (0xBD)-32 (0x20)
Формат : RLE
Формат/Информация : Run-length encoding
Режим смешивания : DVD-Video
Задержка видео : -66 мс.

Меню

Общее
Полное имя : E:Jimi_Hendrix-At_Last-2008VIDEO_TSVTS_01_0.BUP
Формат : DVD Video
Профиль формата : Program
Размер файла : 96,0 Кбайт
Продолжительность : 1 ч. 26 м.
Режим общего битрейта : Переменный
Общий поток : 151 бит/сек

Видео
Идентификатор : 224 (0xE0)
Формат : MPEG Video
Версия формата : Version 2
Продолжительность : 1 ч. 26 м.
Вид битрейта : Переменный
Ширина : 720 пикселей
Высота : 480 пикселей
Соотношение сторон : 4:3
Частота кадров : 29,970 кадров/сек
Стандарт вещания : NTSC
Метод сжатия : С потерями

Аудио #1
Идентификатор : 136 (0x88)
Формат : DTS
Формат/Информация : Digital Theater Systems
Продолжительность : 1 ч. 26 м.
Каналы : 6 каналов
Частота : 48,0 КГц
Метод сжатия : С потерями
Язык : English

Аудио #2
Идентификатор : 1 (0x1)
Формат : PCM
Продолжительность : 1 ч. 26 м.
Каналы : 2 канала
Частота : 48,0 КГц
Язык : English

Текст #1
Идентификатор : 32 (0x20)
Формат : RLE
Формат/Информация : Run-length encoding
Битовая глубина : 2 бит
Язык : English

Текст #2
Идентификатор : 32 (0x20)
Формат : RLE
Формат/Информация : Run-length encoding
Битовая глубина : 2 бит
Язык : French

Текст #3
Идентификатор : 32 (0x20)
Формат : RLE
Формат/Информация : Run-length encoding
Битовая глубина : 2 бит
Язык : German

Текст #4
Идентификатор : 32 (0x20)
Формат : RLE
Формат/Информация : Run-length encoding
Битовая глубина : 2 бит
Язык : Spanish

Текст #5
Идентификатор : 32 (0x20)
Формат : RLE
Формат/Информация : Run-length encoding
Битовая глубина : 2 бит
Язык : Portuguese

Текст #6
Идентификатор : 32 (0x20)
Формат : RLE
Формат/Информация : Run-length encoding
Битовая глубина : 2 бит

Меню #1
Продолжительность : 1 ч. 26 м.
00:00:00.000 : Chapter 1
00:03:02.166 : Chapter 2
00:08:17.232 : Chapter 3
00:11:28.632 : Chapter 4
00:19:27.798 : Chapter 5
00:26:01.664 : Chapter 6
00:29:00.730 : Chapter 7
00:41:00.963 : Chapter 8
00:46:24.263 : Chapter 9
00:48:42.196 : Chapter 10
00:51:57.829 : Chapter 11
00:57:49.195 : Chapter 12
01:01:16.961 : Chapter 13
01:05:14.494 : Chapter 14
01:10:00.827 : Chapter 15
01:16:49.460 : Chapter 16
01:21:44.526 : Chapter 17
01:26:44.826 : Chapter 18
List (Audio) : 0 / 1
List (Subtitles 4/3) : 0 / 1 / 2 / 3 / 4 / 5
List (Subtitles Wide) : 0 / 0 / 0 / 0 / 0 / 0
List (Subtitles Letterbox) : 0 / 0 / 0 / 0 / 0 / 0
List (Subtitles Pan&Scan) : 0 / 0 / 0 / 0 / 0 / 0

Меню #2
Продолжительность : 1 ч. 26 м.
00:00:00.000 : Chapter 1
00:03:02.166 : Chapter 2
00:08:17.232 : Chapter 3
00:11:28.632 : Chapter 4
00:19:27.798 : Chapter 5
00:26:01.664 : Chapter 6
00:29:00.730 : Chapter 7
00:41:00.963 : Chapter 8
00:46:24.263 : Chapter 9
00:48:42.196 : Chapter 10
00:51:57.829 : Chapter 11
00:57:49.195 : Chapter 12
01:01:16.961 : Chapter 13
01:05:14.494 : Chapter 14
01:10:00.827 : Chapter 15
01:16:49.460 : Chapter 16
01:21:44.526 : Chapter 17
01:26:44.826 : Chapter 18
List (Audio) : 0 / 1
List (Subtitles 4/3) : 0 / 1 / 2 / 3 / 4 / 5
List (Subtitles Wide) : 0 / 0 / 0 / 0 / 0 / 0
List (Subtitles Letterbox) : 0 / 0 / 0 / 0 / 0 / 0
List (Subtitles Pan&Scan) : 0 / 0 / 0 / 0 / 0 / 0

Общее
Полное имя : E:Jimi_Hendrix-At_Last-2008VIDEO_TSVTS_01_0.IFO
Формат : DVD Video
Профиль формата : Program
Размер файла : 96,0 Кбайт
Продолжительность : 1 ч. 26 м.
Режим общего битрейта : Переменный
Общий поток : 151 бит/сек

Видео
Идентификатор : 224 (0xE0)
Формат : MPEG Video
Версия формата : Version 2
Продолжительность : 1 ч. 26 м.
Вид битрейта : Переменный
Ширина : 720 пикселей
Высота : 480 пикселей
Соотношение сторон : 4:3
Частота кадров : 29,970 кадров/сек
Стандарт вещания : NTSC
Метод сжатия : С потерями

Аудио #1
Идентификатор : 136 (0x88)
Формат : DTS
Формат/Информация : Digital Theater Systems
Продолжительность : 1 ч. 26 м.
Каналы : 6 каналов
Частота : 48,0 КГц
Метод сжатия : С потерями
Язык : English

Аудио #2
Идентификатор : 1 (0x1)
Формат : PCM
Продолжительность : 1 ч. 26 м.
Каналы : 2 канала
Частота : 48,0 КГц
Язык : English

Текст #1
Идентификатор : 32 (0x20)
Формат : RLE
Формат/Информация : Run-length encoding
Битовая глубина : 2 бит
Язык : English

Текст #2
Идентификатор : 32 (0x20)
Формат : RLE
Формат/Информация : Run-length encoding
Битовая глубина : 2 бит
Язык : French

Текст #3
Идентификатор : 32 (0x20)
Формат : RLE
Формат/Информация : Run-length encoding
Битовая глубина : 2 бит
Язык : German

Текст #4
Идентификатор : 32 (0x20)
Формат : RLE
Формат/Информация : Run-length encoding
Битовая глубина : 2 бит
Язык : Spanish

Текст #5
Идентификатор : 32 (0x20)
Формат : RLE
Формат/Информация : Run-length encoding
Битовая глубина : 2 бит
Язык : Portuguese

Текст #6
Идентификатор : 32 (0x20)
Формат : RLE
Формат/Информация : Run-length encoding
Битовая глубина : 2 бит

Меню #1
Продолжительность : 1 ч. 26 м.
00:00:00.000 : Chapter 1
00:03:02.166 : Chapter 2
00:08:17.232 : Chapter 3
00:11:28.632 : Chapter 4
00:19:27.798 : Chapter 5
00:26:01.664 : Chapter 6
00:29:00.730 : Chapter 7
00:41:00.963 : Chapter 8
00:46:24.263 : Chapter 9
00:48:42.196 : Chapter 10
00:51:57.829 : Chapter 11
00:57:49.195 : Chapter 12
01:01:16.961 : Chapter 13
01:05:14.494 : Chapter 14
01:10:00.827 : Chapter 15
01:16:49.460 : Chapter 16
01:21:44.526 : Chapter 17
01:26:44.826 : Chapter 18
List (Audio) : 0 / 1
List (Subtitles 4/3) : 0 / 1 / 2 / 3 / 4 / 5
List (Subtitles Wide) : 0 / 0 / 0 / 0 / 0 / 0
List (Subtitles Letterbox) : 0 / 0 / 0 / 0 / 0 / 0
List (Subtitles Pan&Scan) : 0 / 0 / 0 / 0 / 0 / 0

Меню #2
Продолжительность : 1 ч. 26 м.
00:00:00.000 : Chapter 1
00:03:02.166 : Chapter 2
00:08:17.232 : Chapter 3
00:11:28.632 : Chapter 4
00:19:27.798 : Chapter 5
00:26:01.664 : Chapter 6
00:29:00.730 : Chapter 7
00:41:00.963 : Chapter 8
00:46:24.263 : Chapter 9
00:48:42.196 : Chapter 10
00:51:57.829 : Chapter 11
00:57:49.195 : Chapter 12
01:01:16.961 : Chapter 13
01:05:14.494 : Chapter 14
01:10:00.827 : Chapter 15
01:16:49.460 : Chapter 16
01:21:44.526 : Chapter 17
01:26:44.826 : Chapter 18
List (Audio) : 0 / 1
List (Subtitles 4/3) : 0 / 1 / 2 / 3 / 4 / 5
List (Subtitles Wide) : 0 / 0 / 0 / 0 / 0 / 0
List (Subtitles Letterbox) : 0 / 0 / 0 / 0 / 0 / 0
List (Subtitles Pan&Scan) : 0 / 0 / 0 / 0 / 0 / 0

Общее
Полное имя : E:Jimi_Hendrix-At_Last-2008VIDEO_TSVTS_01_0.VOB
Формат : MPEG-PS
Размер файла : 249 Мбайт
Продолжительность : 45 с.
Режим общего битрейта : Переменный
Общий поток : 46,3 Мбит/сек

Видео
Идентификатор : 224 (0xE0)
Формат : MPEG Video
Версия формата : Version 2
Профиль формата : Main@Main
Параметр BVOP формата : Да
Параметр матрицы формата : Выборочная
Параметр GOP формата : M=3, N=15
Продолжительность : 45 с.
Вид битрейта : Переменный
Битрейт : 45,2 Мбит/сек
Максимальный битрейт : 7700 Кбит/сек
Ширина : 720 пикселей
Высота : 480 пикселей
Соотношение сторон : 4:3
Частота кадров : 29,970 кадров/сек
Стандарт вещания : NTSC
Цветовое пространство : YUV
Субдискретизация насыщенности : 4:2:0
Битовая глубина : 8 бит
Тип развёртки : Прогрессивная
Метод сжатия : С потерями
Бит/(Пиксели*Кадры) : 4.366
Размер потока : 243 Мбайт (98%)
Основные цвета : SMPTE 170M
Характеристики трансфера : SMPTE 170M
Коэффициенты матрицы : SMPTE 170M

Аудио
Идентификатор : 189 (0xBD)-128 (0x80)
Формат : AC-3
Формат/Информация : Audio Coding 3
Расширение режима : CM (complete main)
Режим смешивания : DVD-Video
Продолжительность : 45 с.
Вид битрейта : Постоянный
Битрейт : 192 Кбит/сек
Каналы : 2 канала
Расположение каналов : Front: L R
Частота : 48,0 КГц
Битовая глубина : 16 бит
Метод сжатия : С потерями
Размер потока : 1,03 Мбайт (0%)

Текст
Идентификатор : 189 (0xBD)-32 (0x20)
Формат : RLE
Формат/Информация : Run-length encoding
Режим смешивания : DVD-Video
Задержка видео : 8 с. 8 мс.

Меню

Общее
Полное имя : E:Jimi_Hendrix-At_Last-2008VIDEO_TSVTS_01_1.VOB
Формат : MPEG-PS
Размер файла : 1024 Мбайт
Продолжительность : 21 м.
Общий поток : 6740 Кбит/сек

Видео
Идентификатор : 224 (0xE0)
Формат : MPEG Video
Версия формата : Version 2
Профиль формата : Main@Main
Параметр BVOP формата : Да
Параметр матрицы формата : По умолчанию
Параметр GOP формата : M=3, N=13
Продолжительность : 21 м.
Битрейт : 3560 Кбит/сек
Максимальный битрейт : 6400 Кбит/сек
Ширина : 720 пикселей
Высота : 480 пикселей
Соотношение сторон : 4:3
Частота кадров : 29,970 кадров/сек
Стандарт вещания : NTSC
Цветовое пространство : YUV
Субдискретизация насыщенности : 4:2:0
Битовая глубина : 8 бит
Тип развёртки : Чересстрочная
Порядок развёртки : Верхнее поле первое
Метод сжатия : С потерями
Бит/(Пиксели*Кадры) : 0.344
Размер потока : 541 Мбайт (53%)
Основные цвета : SMPTE 170M
Характеристики трансфера : SMPTE 170M
Коэффициенты матрицы : SMPTE 170M

Аудио #1
Идентификатор : 189 (0xBD)-136 (0x88)
Формат : DTS
Формат/Информация : Digital Theater Systems
Режим смешивания : DVD-Video
Продолжительность : 21 м.
Вид битрейта : Постоянный
Битрейт : 1510 Кбит/сек
Каналы : 6 каналов
Расположение каналов : Front: L C R, Side: L R, LFE
Частота : 48,0 КГц
Битовая глубина : 16 бит
Метод сжатия : С потерями
Размер потока : 229 Мбайт (22%)

Аудио #2
Идентификатор : 189 (0xBD)-161 (0xA1)
Формат : PCM
Параметр Endianness формата : Big
Параметр Sign формата : Signed
Режим смешивания : DVD-Video
Продолжительность : 21 м.
Вид битрейта : Постоянный
Битрейт : 1536 Кбит/сек
Каналы : 2 канала
Расположение каналов : Front: L R
Частота : 48,0 КГц
Битовая глубина : 16 бит
Размер потока : 233 Мбайт (23%)

Текст #1
Идентификатор : 189 (0xBD)-32 (0x20)
Формат : RLE
Формат/Информация : Run-length encoding
Режим смешивания : DVD-Video
Задержка видео : 1 с. 268 мс.

Текст #2
Идентификатор : 189 (0xBD)-33 (0x21)
Формат : RLE
Формат/Информация : Run-length encoding
Режим смешивания : DVD-Video
Задержка видео : 1 с. 268 мс.

Текст #3
Идентификатор : 189 (0xBD)-34 (0x22)
Формат : RLE
Формат/Информация : Run-length encoding
Режим смешивания : DVD-Video
Задержка видео : 1 с. 235 мс.

Текст #4
Идентификатор : 189 (0xBD)-35 (0x23)
Формат : RLE
Формат/Информация : Run-length encoding
Режим смешивания : DVD-Video
Задержка видео : 1 с. 201 мс.

Текст #5
Идентификатор : 189 (0xBD)-36 (0x24)
Формат : RLE
Формат/Информация : Run-length encoding
Режим смешивания : DVD-Video
Задержка видео : 1 с. 201 мс.

Меню

Общее
Полное имя : E:Jimi_Hendrix-At_Last-2008VIDEO_TSVTS_01_2.VOB
Формат : MPEG-PS
Размер файла : 1024 Мбайт
Продолжительность : 21 м.
Общий поток : 6671 Кбит/сек

Видео
Идентификатор : 224 (0xE0)
Формат : MPEG Video
Версия формата : Version 2
Профиль формата : Main@Main
Параметр BVOP формата : Да
Параметр матрицы формата : По умолчанию
Параметр GOP формата : M=3, N=13
Продолжительность : 21 м.
Битрейт : 3492 Кбит/сек
Максимальный битрейт : 6400 Кбит/сек
Ширина : 720 пикселей
Высота : 480 пикселей
Соотношение сторон : 4:3
Частота кадров : 29,970 кадров/сек
Стандарт вещания : NTSC
Цветовое пространство : YUV
Субдискретизация насыщенности : 4:2:0
Битовая глубина : 8 бит
Тип развёртки : Чересстрочная
Порядок развёртки : Верхнее поле первое
Метод сжатия : С потерями
Бит/(Пиксели*Кадры) : 0.337
Размер потока : 536 Мбайт (52%)
Основные цвета : SMPTE 170M
Характеристики трансфера : SMPTE 170M
Коэффициенты матрицы : SMPTE 170M

Аудио #1
Идентификатор : 189 (0xBD)-136 (0x88)
Формат : DTS
Формат/Информация : Digital Theater Systems
Режим смешивания : DVD-Video
Продолжительность : 21 м.
Вид битрейта : Постоянный
Битрейт : 1510 Кбит/сек
Каналы : 6 каналов
Расположение каналов : Front: L C R, Side: L R, LFE
Частота : 48,0 КГц
Битовая глубина : 16 бит
Метод сжатия : С потерями
Задержка видео : -663 мс.
Размер потока : 232 Мбайт (23%)

Аудио #2
Идентификатор : 189 (0xBD)-161 (0xA1)
Формат : PCM
Параметр Endianness формата : Big
Параметр Sign формата : Signed
Режим смешивания : DVD-Video
Продолжительность : 21 м.
Вид битрейта : Постоянный
Битрейт : 1536 Кбит/сек
Каналы : 2 канала
Расположение каналов : Front: L R
Частота : 48,0 КГц
Битовая глубина : 16 бит
Задержка видео : -678 мс.
Размер потока : 236 Мбайт (23%)

Текст #1
Идентификатор : 189 (0xBD)-32 (0x20)
Формат : RLE
Формат/Информация : Run-length encoding
Режим смешивания : DVD-Video
Продолжительность : 21 м.
Задержка видео : 1 с. 902 мс.

Текст #2
Идентификатор : 189 (0xBD)-33 (0x21)
Формат : RLE
Формат/Информация : Run-length encoding
Режим смешивания : DVD-Video
Продолжительность : 21 м.
Задержка видео : 1 с. 902 мс.

Текст #3
Идентификатор : 189 (0xBD)-34 (0x22)
Формат : RLE
Формат/Информация : Run-length encoding
Режим смешивания : DVD-Video
Продолжительность : 21 м.
Задержка видео : 1 с. 902 мс.

Текст #4
Идентификатор : 189 (0xBD)-35 (0x23)
Формат : RLE
Формат/Информация : Run-length encoding
Режим смешивания : DVD-Video
Продолжительность : 21 м.
Задержка видео : 1 с. 902 мс.

Текст #5
Идентификатор : 189 (0xBD)-36 (0x24)
Формат : RLE
Формат/Информация : Run-length encoding
Режим смешивания : DVD-Video
Продолжительность : 21 м.
Задержка видео : 1 с. 902 мс.

Меню

Общее
Полное имя : E:Jimi_Hendrix-At_Last-2008VIDEO_TSVTS_01_3.VOB
Формат : MPEG-PS
Размер файла : 1024 Мбайт
Продолжительность : 21 м.
Общий поток : 6802 Кбит/сек

Видео
Идентификатор : 224 (0xE0)
Формат : MPEG Video
Версия формата : Version 2
Профиль формата : Main@Main
Параметр BVOP формата : Да
Параметр матрицы формата : По умолчанию
Параметр GOP формата : M=3, N=13
Продолжительность : 21 м.
Битрейт : 3621 Кбит/сек
Максимальный битрейт : 6400 Кбит/сек
Ширина : 720 пикселей
Высота : 480 пикселей
Соотношение сторон : 4:3
Частота кадров : 29,970 кадров/сек
Стандарт вещания : NTSC
Цветовое пространство : YUV
Субдискретизация насыщенности : 4:2:0
Битовая глубина : 8 бит
Тип развёртки : Чересстрочная
Порядок развёртки : Верхнее поле первое
Метод сжатия : С потерями
Бит/(Пиксели*Кадры) : 0.350
Размер потока : 545 Мбайт (53%)
Основные цвета : SMPTE 170M
Характеристики трансфера : SMPTE 170M
Коэффициенты матрицы : SMPTE 170M

Аудио #1
Идентификатор : 189 (0xBD)-136 (0x88)
Формат : DTS
Формат/Информация : Digital Theater Systems
Режим смешивания : DVD-Video
Продолжительность : 21 м.
Вид битрейта : Постоянный
Битрейт : 1510 Кбит/сек
Каналы : 6 каналов
Расположение каналов : Front: L C R, Side: L R, LFE
Частота : 48,0 КГц
Битовая глубина : 16 бит
Метод сжатия : С потерями
Задержка видео : -471 мс.
Размер потока : 227 Мбайт (22%)

Аудио #2
Идентификатор : 189 (0xBD)-161 (0xA1)
Формат : PCM
Параметр Endianness формата : Big
Параметр Sign формата : Signed
Режим смешивания : DVD-Video
Продолжительность : 21 м.
Вид битрейта : Постоянный
Битрейт : 1536 Кбит/сек
Каналы : 2 канала
Расположение каналов : Front: L R
Частота : 48,0 КГц
Битовая глубина : 16 бит
Задержка видео : -473 мс.
Размер потока : 231 Мбайт (23%)

Текст #1
Идентификатор : 189 (0xBD)-32 (0x20)
Формат : RLE
Формат/Информация : Run-length encoding
Режим смешивания : DVD-Video
Задержка видео : 2 с. 836 мс.

Текст #2
Идентификатор : 189 (0xBD)-33 (0x21)
Формат : RLE
Формат/Информация : Run-length encoding
Режим смешивания : DVD-Video
Задержка видео : 2 с. 836 мс.

Текст #3
Идентификатор : 189 (0xBD)-34 (0x22)
Формат : RLE
Формат/Информация : Run-length encoding
Режим смешивания : DVD-Video
Задержка видео : 2 с. 836 мс.

Текст #4
Идентификатор : 189 (0xBD)-35 (0x23)
Формат : RLE
Формат/Информация : Run-length encoding
Режим смешивания : DVD-Video
Задержка видео : 2 с. 836 мс.

Текст #5
Идентификатор : 189 (0xBD)-36 (0x24)
Формат : RLE
Формат/Информация : Run-length encoding
Режим смешивания : DVD-Video
Задержка видео : 2 с. 836 мс.

Меню

Общее
Полное имя : E:Jimi_Hendrix-At_Last-2008VIDEO_TSVTS_01_4.VOB
Формат : MPEG-PS
Размер файла : 1024 Мбайт
Продолжительность : 21 м.
Общий поток : 6789 Кбит/сек

Видео
Идентификатор : 224 (0xE0)
Формат : MPEG Video
Версия формата : Version 2
Профиль формата : Main@Main
Параметр BVOP формата : Да
Параметр матрицы формата : По умолчанию
Параметр GOP формата : M=3, N=13
Продолжительность : 21 м.
Битрейт : 3608 Кбит/сек
Максимальный битрейт : 6400 Кбит/сек
Ширина : 720 пикселей
Высота : 480 пикселей
Соотношение сторон : 4:3
Частота кадров : 29,970 кадров/сек
Стандарт вещания : NTSC
Цветовое пространство : YUV
Субдискретизация насыщенности : 4:2:0
Битовая глубина : 8 бит
Тип развёртки : Чересстрочная
Порядок развёртки : Верхнее поле первое
Метод сжатия : С потерями
Бит/(Пиксели*Кадры) : 0.348
Размер потока : 544 Мбайт (53%)
Основные цвета : SMPTE 170M
Характеристики трансфера : SMPTE 170M
Коэффициенты матрицы : SMPTE 170M

Аудио #1
Идентификатор : 189 (0xBD)-136 (0x88)
Формат : DTS
Формат/Информация : Digital Theater Systems
Режим смешивания : DVD-Video
Продолжительность : 21 м.
Вид битрейта : Постоянный
Битрейт : 1510 Кбит/сек
Каналы : 6 каналов
Расположение каналов : Front: L C R, Side: L R, LFE
Частота : 48,0 КГц
Битовая глубина : 16 бит
Метод сжатия : С потерями
Задержка видео : -352 мс.
Размер потока : 228 Мбайт (22%)

Аудио #2
Идентификатор : 189 (0xBD)-161 (0xA1)
Формат : PCM
Параметр Endianness формата : Big
Параметр Sign формата : Signed
Режим смешивания : DVD-Video
Продолжительность : 21 м.
Вид битрейта : Постоянный
Битрейт : 1536 Кбит/сек
Каналы : 2 канала
Расположение каналов : Front: L R
Частота : 48,0 КГц
Битовая глубина : 16 бит
Задержка видео : -359 мс.
Размер потока : 232 Мбайт (23%)

Текст #1
Идентификатор : 189 (0xBD)-32 (0x20)
Формат : RLE
Формат/Информация : Run-length encoding
Режим смешивания : DVD-Video

Текст #2
Идентификатор : 189 (0xBD)-33 (0x21)
Формат : RLE
Формат/Информация : Run-length encoding
Режим смешивания : DVD-Video

Текст #3
Идентификатор : 189 (0xBD)-34 (0x22)
Формат : RLE
Формат/Информация : Run-length encoding
Режим смешивания : DVD-Video

Текст #4
Идентификатор : 189 (0xBD)-35 (0x23)
Формат : RLE
Формат/Информация : Run-length encoding
Режим смешивания : DVD-Video

Текст #5
Идентификатор : 189 (0xBD)-36 (0x24)
Формат : RLE
Формат/Информация : Run-length encoding
Режим смешивания : DVD-Video

Меню

Общее
Полное имя : E:Jimi_Hendrix-At_Last-2008VIDEO_TSVTS_01_5.VOB
Формат : MPEG-PS
Размер файла : 102 Мбайт
Продолжительность : 2 м. 0 с.
Общий поток : 7049 Кбит/сек

Видео
Идентификатор : 224 (0xE0)
Формат : MPEG Video
Версия формата : Version 2
Профиль формата : Main@Main
Параметр BVOP формата : Да
Параметр матрицы формата : По умолчанию
Параметр GOP формата : M=3, N=13
Продолжительность : 2 м. 0 с.
Битрейт : 3863 Кбит/сек
Максимальный битрейт : 6400 Кбит/сек
Ширина : 720 пикселей
Высота : 480 пикселей
Соотношение сторон : 4:3
Частота кадров : 29,970 кадров/сек
Стандарт вещания : NTSC
Цветовое пространство : YUV
Субдискретизация насыщенности : 4:2:0
Битовая глубина : 8 бит
Тип развёртки : Чересстрочная
Порядок развёртки : Верхнее поле первое
Метод сжатия : С потерями
Бит/(Пиксели*Кадры) : 0.373
Размер потока : 55,4 Мбайт (55%)
Основные цвета : SMPTE 170M
Характеристики трансфера : SMPTE 170M
Коэффициенты матрицы : SMPTE 170M

Аудио #1
Идентификатор : 189 (0xBD)-136 (0x88)
Формат : DTS
Формат/Информация : Digital Theater Systems
Режим смешивания : DVD-Video
Продолжительность : 2 м. 0 с.
Вид битрейта : Постоянный
Битрейт : 1510 Кбит/сек
Каналы : 6 каналов
Расположение каналов : Front: L C R, Side: L R, LFE
Частота : 48,0 КГц
Битовая глубина : 16 бит
Метод сжатия : С потерями
Задержка видео : -399 мс.
Размер потока : 21,7 Мбайт (21%)

Аудио #2
Идентификатор : 189 (0xBD)-161 (0xA1)
Формат : PCM
Параметр Endianness формата : Big
Параметр Sign формата : Signed
Режим смешивания : DVD-Video
Продолжительность : 2 м. 0 с.
Вид битрейта : Постоянный
Битрейт : 1536 Кбит/сек
Каналы : 2 канала
Расположение каналов : Front: L R
Частота : 48,0 КГц
Битовая глубина : 16 бит
Задержка видео : -404 мс.
Размер потока : 22,1 Мбайт (22%)

Текст #1
Идентификатор : 189 (0xBD)-32 (0x20)
Формат : RLE
Формат/Информация : Run-length encoding
Режим смешивания : DVD-Video
Задержка видео : 2 с. 502 мс.

Текст #2
Идентификатор : 189 (0xBD)-33 (0x21)
Формат : RLE
Формат/Информация : Run-length encoding
Режим смешивания : DVD-Video
Задержка видео : 2 с. 502 мс.

Текст #3
Идентификатор : 189 (0xBD)-34 (0x22)
Формат : RLE
Формат/Информация : Run-length encoding
Режим смешивания : DVD-Video
Задержка видео : 2 с. 502 мс.

Текст #4
Идентификатор : 189 (0xBD)-35 (0x23)
Формат : RLE
Формат/Информация : Run-length encoding
Режим смешивания : DVD-Video
Задержка видео : 2 с. 502 мс.

Текст #5
Идентификатор : 189 (0xBD)-36 (0x24)
Формат : RLE
Формат/Информация : Run-length encoding
Режим смешивания : DVD-Video
Задержка видео : 2 с. 502 мс.

Меню

Общее
Полное имя : E:Jimi_Hendrix-At_Last-2008VIDEO_TSVTS_02_0.BUP
Формат : DVD Video
Профиль формата : Program
Размер файла : 18,0 Кбайт
Продолжительность : 43 с.
Режим общего битрейта : Переменный
Общий поток : 3405 бит/сек

Видео
Идентификатор : 224 (0xE0)
Формат : MPEG Video
Версия формата : Version 2
Продолжительность : 43 с.
Вид битрейта : Переменный
Ширина : 720 пикселей
Высота : 480 пикселей
Соотношение сторон : 4:3
Частота кадров : 29,970 кадров/сек
Стандарт вещания : NTSC
Метод сжатия : С потерями

Аудио
Идентификатор : 128 (0x80)
Формат : AC-3
Формат/Информация : Audio Coding 3
Продолжительность : 43 с.
Каналы : 2 канала
Частота : 48,0 КГц
Метод сжатия : С потерями
Язык : English

Меню
Продолжительность : 43 с.
00:00:00.000 : Chapter 1
00:00:07.000 : Chapter 2
00:00:12.000 : Chapter 3
00:00:25.333 : Chapter 4
00:00:37.299 : Chapter 5
00:00:42.799 : Chapter 6
List (Audio) : 0

Общее
Полное имя : E:TEMPJimi_Hendrix-At_Last-2008VIDEO_TSVTS_02_0.IFO
Формат : DVD Video
Профиль формата : Program
Размер файла : 18,0 Кбайт
Продолжительность : 43 с.
Режим общего битрейта : Переменный
Общий поток : 3405 бит/сек

Видео
Идентификатор : 224 (0xE0)
Формат : MPEG Video
Версия формата : Version 2
Продолжительность : 43 с.
Вид битрейта : Переменный
Ширина : 720 пикселей
Высота : 480 пикселей
Соотношение сторон : 4:3
Частота кадров : 29,970 кадров/сек
Стандарт вещания : NTSC
Метод сжатия : С потерями

Аудио
Идентификатор : 128 (0x80)
Формат : AC-3
Формат/Информация : Audio Coding 3
Продолжительность : 43 с.
Каналы : 2 канала
Частота : 48,0 КГц
Метод сжатия : С потерями
Язык : English

Меню
Продолжительность : 43 с.
00:00:00.000 : Chapter 1
00:00:07.000 : Chapter 2
00:00:12.000 : Chapter 3
00:00:25.333 : Chapter 4
00:00:37.299 : Chapter 5
00:00:42.799 : Chapter 6
List (Audio) : 0

Общее
Полное имя : E:Jimi_Hendrix-At_Last-2008VIDEO_TSVTS_02_0.VOB
Формат : MPEG-PS
Размер файла : 58,0 Кбайт
Продолжительность : 400 мс.
Общий поток : 1188 Кбит/сек

Видео
Идентификатор : 224 (0xE0)
Формат : MPEG Video
Версия формата : Version 2
Профиль формата : Main@Main
Параметр BVOP формата : Да
Параметр матрицы формата : Выборочная
Продолжительность : 400 мс.
Максимальный битрейт : 2000 Кбит/сек
Ширина : 720 пикселей
Высота : 480 пикселей
Соотношение сторон : 4:3
Частота кадров : 29,970 кадров/сек
Стандарт вещания : NTSC
Цветовое пространство : YUV
Субдискретизация насыщенности : 4:2:0
Битовая глубина : 8 бит
Тип развёртки : Чересстрочная
Порядок развёртки : Верхнее поле первое
Метод сжатия : С потерями

Текст
Идентификатор : 189 (0xBD)-32 (0x20)
Формат : RLE
Формат/Информация : Run-length encoding
Режим смешивания : DVD-Video
Задержка видео : -66 мс.

Меню

Общее
Полное имя : E:Jimi_Hendrix-At_Last-2008VIDEO_TSVTS_02_1.VOB
Формат : MPEG-PS
Размер файла : 17,3 Мбайт
Продолжительность : 43 с.
Режим общего битрейта : Переменный
Общий поток : 3346 Кбит/сек

Видео
Идентификатор : 224 (0xE0)
Формат : MPEG Video
Версия формата : Version 2
Профиль формата : Main@Main
Параметр BVOP формата : Да
Параметр матрицы формата : Выборочная
Параметр GOP формата : M=3, N=15
Продолжительность : 43 с.
Вид битрейта : Переменный
Битрейт : 3088 Кбит/сек
Максимальный битрейт : 8000 Кбит/сек
Ширина : 720 пикселей
Высота : 480 пикселей
Соотношение сторон : 4:3
Частота кадров : 29,970 кадров/сек
Стандарт вещания : NTSC
Цветовое пространство : YUV
Субдискретизация насыщенности : 4:2:0
Битовая глубина : 8 бит
Тип развёртки : Чересстрочная
Порядок развёртки : Верхнее поле первое
Метод сжатия : С потерями
Бит/(Пиксели*Кадры) : 0.298
Размер потока : 16,0 Мбайт (92%)
Основные цвета : SMPTE 170M
Характеристики трансфера : SMPTE 170M
Коэффициенты матрицы : SMPTE 170M

Аудио
Идентификатор : 189 (0xBD)-128 (0x80)
Формат : AC-3
Формат/Информация : Audio Coding 3
Расширение режима : CM (complete main)
Режим смешивания : DVD-Video
Продолжительность : 37 с.
Вид битрейта : Постоянный
Битрейт : 192 Кбит/сек
Каналы : 2 канала
Расположение каналов : Front: L R
Частота : 48,0 КГц
Битовая глубина : 16 бит
Метод сжатия : С потерями
Размер потока : 875 Кбайт (5%)
Перевод: Отсутствует
Видеокодек: MPEG-2
Битрейт видео: 3863 Кбит/сек
Размер кадра: NTSC 4:3 (720×480)
Качество видео: DVD5
Аудио:
1) LPCM, 2.0 ch, 1536 kb/s
2) DTS, 5.1 ch, 1536 kb/s
Субтитры: Eng, Ita, Fra, Ger, Port

Качество: DVD-5
Формат: MPG
Видео: MPEG-2/720*480/3863 Кбит/сек
Звук: LPCM, 2.0 ch, 1536 kb/s ; DTS, 5.1 ch, 1536 kb/s
Размер: 4.36 GB
Файлов: 15 [Древовидный список] [Линейный список]
Начало раздачи: 15 Января 2012 в 20:45
Раздает: Sokolovi4

https://www.youtube.com/watch?v=