Парк Юрского Периода: Трилогия / Jurassic Park Ultimate Collection [1080p] (1997) BDRip


[Всего голосов: 0    Средний: 0/5]

0 просмотров

Размер: 45.25 GB

Дата: 03.11.2018

Парк Юрского Периода: Трилогия / Jurassic Park Ultimate Collection [1080p] (1997) BDRip

Парк Юрского периода / Jurassic Park (1993)
«Самое феноменальное открытие нашего времени … становится величайшим приключением всех времен.»

Страна: США
Жанр: фантастика, боевик, приключения, семейный
Год выпуска: 1993
Продолжительность: 02:06:36
Перевод: Профессиональный многоголосый закадровый
Русские субтитры: есть
Оригинальная аудиодорожка: английский

Режиссер: Стивен Спилберг / Steven Spielberg

В ролях: Сэм Нил, Лора Дерн, Джефф Голдблюм, Ричард Аттенборо, Боб Пек, Мартин Ферреро, Джозеф Маццелло, Ариана Ричардс, Сэмюэл Л. Джексон, Б. Д. Вонг

Описание: Экспансивный богач и профессор уговаривает пару ученых-палеонтологов приехать на остров у побережья Коста-Рики, где он устроил реликтовый парк. В парке этом водятся древние зверушки — динозавры, которые по его идее и должны стать гвоздем программы нового аттракциона.

До открытия остается несколько дней, а один из работников, пытаясь продать «рассаду» налево, нарушает систему охраны, что в комплексе с грозовым ливнем приводит к тому, что доисторические животные оказываются на воле, где действуют в соответствии со своими инстинктами.

Тип релиза: BDRip 1080p
Контейнер: MKV

Видео: AVC / 17000 kbps / 1920х1040p / 23,976 fps / High@L4.1

Аудио 1: Русский / AC3 / 5.1 / 48 kHz / 448 kbps / 16-bit многоголосый закадровый c Blu-Ray
Аудио 2: Русский / AC3 / 5.1 / 48 kHz / 384 kbps / 16-bit многоголосый закадровый, Киномания
Аудио 3: Русский / DTS / 5.1 / 48 kHz / 755 kbps / 24-bit одноголосый закадровый, Живов
Аудио 4: Русский / AC3 / 5.1 / 48 kHz / 384 kbps / 16-bit одноголосый закадровый, Гаврилов
Аудио 5: Украинский / AC3 / 5.1 / 48 kHz / 192 kbps / 16-bit многоголосый закадровый
Аудио 6: Английский / DTS / 5.1 / 48 kHz / 1510 kbps / 24-bit
Cубтитры: (SRT) Русские (2 вида), Английские
MInfoПолное имя : 1.Jurassic Park1993.BDRip.1080p.by_genkasper.mkv
Формат : Matroska
Версия формата : Version 2
Размер файла : 18,3 Гбайт
Продолжительность : 2 ч. 6 м.
Общий поток : 20,7 Мбит/сек
Дата кодирования : UTC 2012-02-01 21:33:31
Программа кодирования : mkvmerge v5.2.1 (‘A Far Off Place’) built on Jan 2 2012 23:21:10
Библиотека кодирования : libebml v1.2.3 + libmatroska v1.3.0

Видео
Идентификатор : 1
Формат : AVC
Формат/Информация : Advanced Video Codec
Профиль формата : High@L4.1
Параметр CABAC формата : Да
Параметр ReFrames формата : 4 кадра
Идентификатор кодека : V_MPEG4/ISO/AVC
Продолжительность : 2 ч. 6 м.
Битрейт : 17,0 Мбит/сек
Ширина : 1920 пикселей
Высота : 1040 пикселей
Соотношение сторон : 16:9
Частота кадров : 23,976 кадра/сек
Цветовое пространство : YUV
Субдискретизация насыщенности : 4:2:0
Битовая глубина : 8 бит
Тип развёртки : Прогрессивная
Бит/(Пиксели*Кадры) : 0.355
Размер потока : 14,7 Гбайт (80%)
Библиотека кодирования : x264 core 115 r1936 7a9e08d
Настройки программы : cabac=1 / ref=4 / deblock=1:-2:-2 / analyse=0x3:0x133 / me=umh / subme=10 / psy=1 / psy_rd=1.00:0.10 / mixed_ref=1 / me_range=24 / chroma_me=1 / trellis=2 / 8x8dct=1 / cqm=0 / deadzone=21,11 / fast_pskip=0 / chroma_qp_offset=-3 / threads=9 / sliced_threads=0 / nr=0 / decimate=1 / interlaced=0 / bluray_compat=0 / constrained_intra=0 / bframes=13 / b_pyramid=2 / b_adapt=2 / b_bias=0 / direct=3 / weightb=1 / open_gop=0 / weightp=2 / keyint=250 / keyint_min=23 / scenecut=40 / intra_refresh=0 / rc_lookahead=50 / rc=2pass / mbtree=1 / bitrate=17000 / ratetol=1.0 / qcomp=0.70 / qpmin=0 / qpmax=69 / qpstep=4 / cplxblur=20.0 / qblur=0.5 / ip_ratio=1.40 / aq=1:1.00
Язык : English

Аудио #1
Идентификатор : 2
Формат : AC-3
Формат/Информация : Audio Coding 3
Расширение режима : CM (complete main)
Идентификатор кодека : A_AC3
Продолжительность : 2 ч. 6 м.
Вид битрейта : Постоянный
Битрейт : 448 Кбит/сек
Каналы : 6 каналов
Расположение каналов : Front: L C R, Side: L R, LFE
Частота : 48,0 КГц
Битовая глубина : 16 бит
Метод сжатия : С потерями
Задержка видео : 24 мс.
Размер потока : 406 Мбайт (2%)
Заголовок : MVO, Blu-Ray
Язык : Russian

Аудио #2
Идентификатор : 3
Формат : AC-3
Формат/Информация : Audio Coding 3
Расширение режима : CM (complete main)
Идентификатор кодека : A_AC3
Продолжительность : 2 ч. 6 м.
Вид битрейта : Постоянный
Битрейт : 384 Кбит/сек
Каналы : 6 каналов
Расположение каналов : Front: L C R, Side: L R, LFE
Частота : 48,0 КГц
Битовая глубина : 16 бит
Метод сжатия : С потерями
Задержка видео : 20 с.
Размер потока : 348 Мбайт (2%)
Заголовок : MVO, Kinomaniya
Язык : Russian

Аудио #3
Идентификатор : 4
Формат : DTS
Формат/Информация : Digital Theater Systems
Идентификатор кодека : A_DTS
Продолжительность : 2 ч. 6 м.
Вид битрейта : Постоянный
Битрейт : 755 Кбит/сек
Каналы : 6 каналов
Расположение каналов : Front: L C R, Side: L R, LFE
Частота : 48,0 КГц
Битовая глубина : 24 бит
Метод сжатия : С потерями
Задержка видео : 20 с.
Размер потока : 683 Мбайт (4%)
Заголовок : Zhivov
Язык : Russian

Аудио #4
Идентификатор : 5
Формат : AC-3
Формат/Информация : Audio Coding 3
Расширение режима : CM (complete main)
Идентификатор кодека : A_AC3
Продолжительность : 2 ч. 6 м.
Вид битрейта : Постоянный
Битрейт : 384 Кбит/сек
Каналы : 6 каналов
Расположение каналов : Front: L C R, Side: L R, LFE
Частота : 48,0 КГц
Битовая глубина : 16 бит
Метод сжатия : С потерями
Задержка видео : 20 с.
Размер потока : 348 Мбайт (2%)
Заголовок : Gavrilov
Язык : Russian

Аудио #5
Идентификатор : 6
Формат : AC-3
Формат/Информация : Audio Coding 3
Расширение режима : CM (complete main)
Идентификатор кодека : A_AC3
Продолжительность : 2 ч. 6 м.
Вид битрейта : Постоянный
Битрейт : 192 Кбит/сек
Каналы : 6 каналов
Расположение каналов : Front: L C R, Side: L R, LFE
Частота : 48,0 КГц
Битовая глубина : 16 бит
Метод сжатия : С потерями
Задержка видео : 20 с.
Размер потока : 174 Мбайт (1%)
Заголовок : MVO, Ukrainian
Язык : Ukrainian

Аудио #6
Идентификатор : 7
Формат : DTS
Формат/Информация : Digital Theater Systems
Идентификатор кодека : A_DTS
Продолжительность : 2 ч. 6 м.
Вид битрейта : Постоянный
Битрейт : 1510 Кбит/сек
Каналы : 6 каналов
Расположение каналов : Front: L C R, Side: L R, LFE
Частота : 48,0 КГц
Битовая глубина : 24 бит
Метод сжатия : С потерями
Задержка видео : 3 мс.
Размер потока : 1,34 Гбайт (7%)
Заголовок : Original
Язык : English

Текст #1
Идентификатор : 8
Формат : UTF-8
Идентификатор кодека : S_TEXT/UTF8
Идентификатор кодека/Информация : UTF-8 Plain Text
Заголовок : Rus 1, SRT
Язык : Russian

Текст #2
Идентификатор : 9
Формат : UTF-8
Идентификатор кодека : S_TEXT/UTF8
Идентификатор кодека/Информация : UTF-8 Plain Text
Заголовок : Rus 2, SRT
Язык : Russian

Текст #3
Идентификатор : 10
Формат : UTF-8
Идентификатор кодека : S_TEXT/UTF8
Идентификатор кодека/Информация : UTF-8 Plain Text
Заголовок : Eng, SRT
Язык : English
Знаете ли вы, что…• Борьба за право экранизировать одноимённый роман Майкла Крайтона началась ещё до его публикации. Главным требованием автора были стартовый гонорар в 1,5 млн. долларов и немалый процент от будущих сборов. Среди заинтересовавшихся романом киностудий были Warner Bros., Columbia Pictures и 20th Century Fox, видевшие в режиссерском кресле соответственно Тима Бёртона, Ричарда Доннера и Джо Данте, но, в конечном счете, в мае 1990 года права достались Universal Pictures и Стивену Спилбергу.
• Съёмки фильма проходили с 24 августа по 30 ноября 1992 года на Гавайских островах (остров Кауаи) и в Калифорнии.
• 11 сентября 1992 года ураган Иники обрушился на Гавайские острова, вызвав кратковременную задержку в съемках фильма. Из-за урагана съёмочная группа перебралась на крупнейший остров архипелага Оаху, где была снята сцена с тираннозавром, появляющимся из-за кустов и поедающим мелкого динозавра галлимимуса. Это единственная сцена на открытом воздухе, снятая не на острове Кауаи.
• Роль доктора Саттлер первоначально была предложена Робин Райт Пенн. Также её могла сыграть Жюльетт Бинош, которая отклонила предложение, отдав предпочтение картине «Три цвета: Синий (1993).
• Оператор фильма Дин Канди появляется в камео в качестве рабочего дока, с которым Деннис Недри разговаривает через свой компьютер.
• Самый первый вариант сценария картины было поручено написать самому Майклу Крайтону, в тот период пока режиссёр Стивен Спилберг был занят работой над фильмом «Крюк» (1991). По словам автора из-за значительного объёма романа сценарий будущего фильма вобрал в себя не больше 10-20% книги. В октябре 1991 года за переработку сценария взялась Малия Скотч Мармо, а в начале 1992 года к работе приступил Дэвид Копп, внёсший значительные изменения в предыдущую версию.
• По настоянию Стивена Спилберга сценаристы поменяли местами возраст детей, Лекс и Тима, и их персонажи. В Романе Майкла Крайтона одиннадцатилетний Тим одержим компьютерами и старше своей сестры, которой 7-8 лет. Это было сделано для того, чтобы роль Тима смог получить юный Джозеф Мацелло, который на прослушиваниях к фильму «Капитан Крюк» (1991) произвёл исключительно сильное впечатление на знаменитого режиссёра.
• Ариана Ричардс получила приглашение на прослушивания после того как Стивен Спилберг обратил внимание на игру юной актрисы в телевизионной драме «Арлина и Кимберли» (1991), за которую та была удостоена Young Artist Award – главной награды года для молодых исполнителей. В числе прочего режиссёра интересовало насколько хорошо и громко актриса сможет кричать, для чего отвечающий за подбор актёров в течение трёх минут записывал отчаянные крики девочки. Получившийся результат полностью удовлетворил режиссёра, который позднее утверждал, что он не слышал столь правдоподобных криков ужаса со времён «Кинг-Конга» 1933 года.
• Роль Лекс могла достаться Анне Кламски.
• Дрожание воды в стакане в салоне Форда при приближении тираннозавра было достигнуто с помощью струны гитары, прикреплённой снизу к подносу, на котором стоял стакан.
• Крупная фирма по производству игрушек Kenner выпустила серию фигурок, изображающих персонажи фильма: Гранта, Саттлер, Малкольма, Малдона, Недри и Тима. Ариана Ричардс была очень расстроена, что её персонаж (Лекс) не удостоился такой чести.
• Аниматронная модель малыша-трицератопса была сконструирована специально для сцены, в которой один из детей решает прокатиться верхом на динозавре. Постановщики спецэффектов бились над этой сценой около года, но в последний момент она была вырезана из финальной версии фильма, поскольку режиссёр посчитал, что сцена неоправданно замедляла бы ход развития событий.
• Премьера фильма прошла 9 июня 1993 года в музее National Building Museum в Нью-Йорке, а все вырученные от неё средства пошли на благотворительность.
• Первая актёрская работа Ричарда Аттэнборо после более чем четырнадцатилетнего перерыва.
• «Парк юрского периода» заработал 914,7 млн. долларов в мировом кинопрокате и в течение четырёх с половиной лет до выхода «Титаника» оставался самым кассовым фильмом за всю историю кино.
• В сцене рождения динозавров в лаборатории по первоначальному замыслу из яйца вылуплялись трицератопсы, которых позднее заменили на велосирапторов.
• Первый фильм, использовавший формат звука DTS – Digital Surround Sound.
• Многие мелкие ошибки и неточности подправлялись с помощью компьютерной графики. В некоторых случаях дублёры и каскадёры были сделаны более походящими на актёров, а в одной из сцен был полностью добавлен автомобиль Ford Explorer.
• Рёв тираннозавра состоял из соединённых вместе голосов слонёнка, тигра и аллигатора, а для его дыхания были использованы звуки выдыхания воздуха китом.
• Режиссёр Стивен Спилберг был настолько уверен в коммерческом успехе «Парка Юрского периода», что он ещё до окончания работы над фильмом приступил к работе над своим следующим проектом, «Списком Шиндлера» (1994), поручив полностью пост-продакшн фильма Джорджу Лукасу.
• Роль доктора Хэммонда предлагалась Шону Коннери.
• Сцена с рапторами в кухне снималась в день рождения Джозефа Мацелло. По ошибке во время одного из дублей актёр налетел на раптора, получив при этом несколько лёгких ушибов и царапин.
• Съёмки картины завершились за 12 дней до запланированной даты, полностью уложившись в бюджет.
• Для сцены, где тираннозавр выхватывает динозавра из стаи галлимимусов и пожирает его, был использован звук собаки, трясущей игрушку в своей пасти.
• Чтобы создать видимость беспилотного автомобиля, движущегося с помощью электроэнергии по рельсу, использовалось скрытое управление, установленное сзади каждой из машин. Водитель был спрятан под брезентом, а для того, чтобы он мог видеть дорогу и происходящее впереди, существовал специальный экран, изображение на который поступало с двух небольших камер. Одна из них была установлена на панели перед рулевым колесом, а вторая на переднем бампере.
• Продюсер фильма Джеральд Р.Молен появляется в камео в качестве доктора Герри Хардинга, которого главные герои встречают в начале экскурсии рядом с больным трицератопсом.
• В кадре, где показываются сувениры, посвящённые будущему «Парку юрского периода» можно заметить книгу «The Making of Jurassic Park» – «Создание Парка Юрского периода» Дона Шея и Джоди Данкан. Эта книга в действительности существовала, и в ней рассказывалось о работе над фильмом.
• Роль Малдона (охотника, отвечающего за безопасность в парке) могла достаться Брайану Коксу.
• Необычное ружье, которое использует Малдон это Franchi SPAS 12 итальянского производства.
• Заголовки газет, лежащих на холодильнике в трейлере доктора Гранта: «Пришельцы из космоса украли моё лицо» («Space Aliens Stole My Face») и «Динозавры на Марсе!» («Dinosaurs On Mars!»).
• Перед началом экскурсии по парку Тим в беседе с доктором Грантом упоминает Роберта Бэккера и его книгу о динозаврах. Палеонтолог Роберт Бэккер был одним из научных консультантов фильма.
• Все многочисленные сувениры с эмблемой Парка юрского периода (футболки, игрушки, фляжки, упаковки и многое другое), которые можно увидеть в фильме, существовали в действительности и использовались в рекламной кампании проекта.
• После участия в съёмках картины у Арианы Ричардс появился настолько сильный интерес к динозаврам, что следующим летом она принимала активное участие в раскопках окаменелостей динозавров в Монтане, проводимых профессоров Джеком Хорнером, который был главным научным консультантом «Парка юрского периода».
• Аниматронная модель тираннозавра в полный рост весила около 6 тонн и была ростом чуть больше 6 метров при длине в 12 метров. Во время съёмок первой атаки тираннозавра, которая происходила в сильный ливень и снималась на закрытой съёмочной площадке, резина, покрывавшая модель, впитала в себя большое количество воды, сделав её ещё более тяжёлой и практически неуправляемой. Обслуживающему персоналу пришлось работать, не покладая рук всю ночь, чтобы высушить тираннозавра. В конечном счете, было принято решение сконструировать специальную платформу над тираннозавром вне поля видимости камеры, которая бы удерживала льющиеся потоки воды.
• Плюющиеся ядовитой слюной дилофозавры в реальности были значительно больше и не обладали такой редкой способностью. Их размеры были уменьшены ради того, чтобы неискушённые зрители не перепутали их с рапторами.
• Несмотря на название фильма, большинство показанных в нём динозавров существовали в меловом периоде мезозойской эры, а не в предшествующем ему юрском.
• Стивен Спилберг настоял на том, чтобы рапторы были ростом около трёх метров, хотя на тот момент о существовании столь крупных разновидностей не было известно. Уже во время съёмок фильма при раскопках окаменелостей динозавров были обнаружены особи рапторов трёхметрового роста, получившие название Ютарапторов.
• В первоначальном варианте сценария персонажи Дженнаро и Малкольма были объединены в один, а Малдон оставался в живых. В книге Майкла Крайтона Малкольм и доктор Хаммонд погибали, хотя первый из них затем чудесным образом воскресал в её продолжении, объясняя этот факт тем, что «врачи проделали отличную работу».
• Когда тираннозавр атаковал машину с Лекс и Тимом внутри, по сценарию стекло не должно было разбиваться, и поэтому испуганные крики детей в этот момент были абсолютно натуральными.

Парк Юрского периода 2: Затерянный мир / The Lost World: Jurassic Park 9(1997)

«Но все-таки кто-то выжил.»

Страна: США
Жанр: фантастика, боевик, триллер, приключения
Год выпуска: 1997
Продолжительность: 02:08:40
Перевод: Профессиональный дублированный, Профессиональный многоголосый закадровый
Русские субтитры: есть
Оригинальная аудиодорожка: английский

Режиссер: Стивен Спилберг / Steven Spielberg

В ролях: Джефф Голдблюм, Джулианна Мур, Пит Постлетуэйт, Ричард Аттенборо, Винс Вон, Арлисс Ховард, Ванесса Ли Честер, Петер Стормаре, Харви Джейсон, Ричард Шифф

Описание: События этого фильма разворачиваются через четыре года после того, что произошло в «Парке Юрского периода». На близлежащем острове динозавры выжили и адаптировались к дикой природе. Но вот находится Некто, кто хочет перевезти их на материк и заработать на этом, не понимая, какими могут быть последствия, и посылает на остров своих людей.

Джон Хэммонд, который потерял контроль над своей компанией, считает, что у него появился шанс исправить свои прошлые ошибки. Он, в свою очередь, снаряжает экспедицию во главе с Яном Малкольмом, чтобы появиться там до высадки наемников.

В результате происходящих событий две эти конфликтующие группы вынуждены объединиться перед лицом смертельной опасности. И, как потом выясняется, времени им отпущено совсем немного.

Тип релиза: BDRip 1080p
Контейнер: MKV

Видео: AVC / 12000 kbps / 1920x1040p / 23,976 fps / High@L4.1

Аудио 1: Русский / AC3 / 2.0 / 48 kHz / 256 kbps / 16-bit дублированный
Аудио 2: Русский / DTS / 5.1 / 48 kHz / 1510 kbps / 24-bit многоголосый закадровый c Blu-Ray
Аудио 3: Русский / AC3 / 5.1 / 48 kHz / 640 kbps / 16-bit многоголосый закадровый, Супербит
Аудио 4: Русский / AC3 / 5.1 / 48 kHz / 384 kbps / 16-bit многоголосый закадровый, Киномания
Аудио 5: Русский / AC3 / 5.1 / 48 kHz / 448 kbps / 16-bit одноголосый закадровый, Живов
Аудио 6: Английский / DTS / 5.1 / 48 kHz / 1510 kbps / 24-bit
Cубтитры: (SRT) Русские (2 вида), Английские
MInfoПолное имя : 2.The Lost World.Jurassic Park.1997.BDRip.1080p.by_genkasper.mkv
Формат : Matroska
Версия формата : Version 2
Размер файла : 15,0 Гбайт
Продолжительность : 2 ч. 8 м.
Общий поток : 16,7 Мбит/сек
Дата кодирования : UTC 2012-02-01 22:36:08
Программа кодирования : mkvmerge v5.2.1 (‘A Far Off Place’) built on Jan 2 2012 23:21:10
Библиотека кодирования : libebml v1.2.3 + libmatroska v1.3.0

Видео
Идентификатор : 1
Формат : AVC
Формат/Информация : Advanced Video Codec
Профиль формата : High@L4.1
Параметр CABAC формата : Да
Параметр ReFrames формата : 4 кадра
Идентификатор кодека : V_MPEG4/ISO/AVC
Продолжительность : 2 ч. 8 м.
Битрейт : 12,0 Мбит/сек
Ширина : 1920 пикселей
Высота : 1040 пикселей
Соотношение сторон : 16:9
Частота кадров : 23,976 кадра/сек
Цветовое пространство : YUV
Субдискретизация насыщенности : 4:2:0
Битовая глубина : 8 бит
Тип развёртки : Прогрессивная
Бит/(Пиксели*Кадры) : 0.251
Размер потока : 10,5 Гбайт (70%)
Библиотека кодирования : x264 core 115 r1936 7a9e08d
Настройки программы : cabac=1 / ref=4 / deblock=1:-1:-1 / analyse=0x3:0x133 / me=umh / subme=10 / psy=1 / psy_rd=1.00:0.10 / mixed_ref=1 / me_range=24 / chroma_me=1 / trellis=2 / 8x8dct=1 / cqm=0 / deadzone=21,11 / fast_pskip=0 / chroma_qp_offset=-3 / threads=9 / sliced_threads=0 / nr=0 / decimate=1 / interlaced=0 / bluray_compat=0 / constrained_intra=0 / bframes=12 / b_pyramid=2 / b_adapt=2 / b_bias=0 / direct=3 / weightb=1 / open_gop=0 / weightp=2 / keyint=250 / keyint_min=23 / scenecut=40 / intra_refresh=0 / rc_lookahead=50 / rc=2pass / mbtree=1 / bitrate=12000 / ratetol=1.0 / qcomp=0.70 / qpmin=0 / qpmax=69 / qpstep=4 / cplxblur=20.0 / qblur=0.5 / ip_ratio=1.40 / aq=1:1.00
Язык : English

Аудио #1
Идентификатор : 2
Формат : AC-3
Формат/Информация : Audio Coding 3
Расширение режима : CM (complete main)
Идентификатор кодека : A_AC3
Продолжительность : 2 ч. 8 м.
Вид битрейта : Постоянный
Битрейт : 256 Кбит/сек
Каналы : 2 канала
Расположение каналов : Front: L R
Частота : 48,0 КГц
Битовая глубина : 16 бит
Метод сжатия : С потерями
Задержка видео : 3 с. 200 мс.
Размер потока : 236 Мбайт (2%)
Заголовок : Dub
Язык : Russian

Аудио #2
Идентификатор : 3
Формат : DTS
Формат/Информация : Digital Theater Systems
Идентификатор кодека : A_DTS
Продолжительность : 2 ч. 8 м.
Вид битрейта : Постоянный
Битрейт : 1510 Кбит/сек
Каналы : 6 каналов
Расположение каналов : Front: L C R, Side: L R, LFE
Частота : 48,0 КГц
Битовая глубина : 24 бит
Метод сжатия : С потерями
Задержка видео : 3 мс.
Размер потока : 1,36 Гбайт (9%)
Заголовок : MVO, Blu-Ray
Язык : Russian

Аудио #3
Идентификатор : 4
Формат : AC-3
Формат/Информация : Audio Coding 3
Расширение режима : CM (complete main)
Идентификатор кодека : A_AC3
Продолжительность : 2 ч. 8 м.
Вид битрейта : Постоянный
Битрейт : 640 Кбит/сек
Каналы : 6 каналов
Расположение каналов : Front: L C R, Side: L R, LFE
Частота : 48,0 КГц
Битовая глубина : 16 бит
Метод сжатия : С потерями
Задержка видео : 3 с. 200 мс.
Размер потока : 589 Мбайт (4%)
Заголовок : MVO, SuperBit
Язык : Russian

Аудио #4
Идентификатор : 5
Формат : AC-3
Формат/Информация : Audio Coding 3
Расширение режима : CM (complete main)
Идентификатор кодека : A_AC3
Продолжительность : 2 ч. 8 м.
Вид битрейта : Постоянный
Битрейт : 384 Кбит/сек
Каналы : 6 каналов
Расположение каналов : Front: L C R, Side: L R, LFE
Частота : 48,0 КГц
Битовая глубина : 16 бит
Метод сжатия : С потерями
Задержка видео : 3 с. 200 мс.
Размер потока : 354 Мбайт (2%)
Заголовок : MVO, Kinomaniya
Язык : Russian

Аудио #5
Идентификатор : 6
Формат : AC-3
Формат/Информация : Audio Coding 3
Расширение режима : CM (complete main)
Идентификатор кодека : A_AC3
Продолжительность : 2 ч. 8 м.
Вид битрейта : Постоянный
Битрейт : 448 Кбит/сек
Каналы : 6 каналов
Расположение каналов : Front: L C R, Side: L R, LFE
Частота : 48,0 КГц
Битовая глубина : 16 бит
Метод сжатия : С потерями
Задержка видео : 3 с. 200 мс.
Размер потока : 412 Мбайт (3%)
Заголовок : Zhivov
Язык : Russian

Аудио #6
Идентификатор : 7
Формат : DTS
Формат/Информация : Digital Theater Systems
Идентификатор кодека : A_DTS
Продолжительность : 2 ч. 8 м.
Вид битрейта : Постоянный
Битрейт : 1510 Кбит/сек
Каналы : 6 каналов
Расположение каналов : Front: L C R, Side: L R, LFE
Частота : 48,0 КГц
Битовая глубина : 24 бит
Метод сжатия : С потерями
Задержка видео : 3 мс.
Размер потока : 1,36 Гбайт (9%)
Заголовок : Original
Язык : English

Текст #1
Идентификатор : 8
Формат : UTF-8
Идентификатор кодека : S_TEXT/UTF8
Идентификатор кодека/Информация : UTF-8 Plain Text
Заголовок : Rus 1, SRT
Язык : Russian

Текст #2
Идентификатор : 9
Формат : UTF-8
Идентификатор кодека : S_TEXT/UTF8
Идентификатор кодека/Информация : UTF-8 Plain Text
Заголовок : Rus 2, SRT
Язык : Russian

Текст #3
Идентификатор : 10
Формат : UTF-8
Идентификатор кодека : S_TEXT/UTF8
Идентификатор кодека/Информация : UTF-8 Plain Text
Заголовок : Eng, SRT
Язык : English

Парк Юрского периода 3 / Jurassic Park III (2001)

«С каждым звуком, с каждым ударом сердца, не будет больше страха, чем когда-либо прежде»

Страна: США
Жанр: фантастика, боевик, триллер, приключения
Год выпуска: 2001
Продолжительность: 01:32:20
Перевод: Профессиональный дублированный
Русские субтитры: есть
Оригинальная аудиодорожка: английский

Режиссер: Джо Джонстон / Joe Johnston

В ролях: Сэм Нил, Уильям Х. Мэйси, Теа Леони, Алессандро Нивола, Тревор Морган, Майкл Джитер, Джон Дил, Брюс А. Янг, Лора Дерн, Тейлор Николс

Описание: Герой Сэма Нила, палеонтолог Алан Грант, принимает предложение состоятельного предпринимателя совершить обзорную экскурсию над печально знаменитым островом Сорна на специально нанятом самолете. Мог ли доктор Грант предполагать, что страшная, непредвиденная катастрофа снова заставит его столкнуться со свирепыми плотоядными существами из прошлого?!

Более того, с момента ужасных событий картины «Парк Юрского периода» динозавры стали хитрее, сильнее и несоизмеримо опасней. Начинается новая, стремительная и жуткая гонка на выживание, в сравнении с которой все прошлые похождения доктора Гранта — лишь детские игрушки!

Тип релиза: BDRip 1080p
Контейнер: MKV

Видео: AVC / 15000 kbps / 1920x1040p / 23,976 fps / High@L4.1

Аудио 1: Русский / DTS / 5.1 / 48 kHz / 755 kbps / 24-bit профессиональный дублированный c Blu-Ray
Аудио 2: Русский / AC3 / 5.1 / 48 kHz / 384 kbps / 16-bit многоголосый закадровый, Киномания
Аудио 3: Русский / AC3 / 5.1 / 48 kHz / 448 kbps / 16-bit одноголосый закадровый, Живов
Аудио 4: Украинский / AC3 / 2.0 / 48 kHz / 384 kbps / 16-bit многоголосый закадровый
Аудио 5: Английский / DTS / 5.1 / 48 kHz / 1510 kbps / 24-bit
Cубтитры: (SRT) Русские (форсированные, полные 2 вида), Английские
MInfoПолное имя : 3.Jurassic Park III.2001.BDRip.1080p.by_genkasper.mkv
Формат : Matroska
Версия формата : Version 2
Размер файла : 11,9 Гбайт
Продолжительность : 1 ч. 32 м.
Общий поток : 18,5 Мбит/сек
Дата кодирования : UTC 2012-02-01 23:50:27
Программа кодирования : mkvmerge v5.2.1 (‘A Far Off Place’) built on Jan 2 2012 23:21:10
Библиотека кодирования : libebml v1.2.3 + libmatroska v1.3.0

Видео
Идентификатор : 1
Формат : AVC
Формат/Информация : Advanced Video Codec
Профиль формата : High@L4.1
Параметр CABAC формата : Да
Параметр ReFrames формата : 4 кадра
Идентификатор кодека : V_MPEG4/ISO/AVC
Продолжительность : 1 ч. 32 м.
Битрейт : 15,0 Мбит/сек
Ширина : 1920 пикселей
Высота : 1040 пикселей
Соотношение сторон : 16:9
Частота кадров : 23,976 кадра/сек
Цветовое пространство : YUV
Субдискретизация насыщенности : 4:2:0
Битовая глубина : 8 бит
Тип развёртки : Прогрессивная
Бит/(Пиксели*Кадры) : 0.313
Размер потока : 9,44 Гбайт (79%)
Библиотека кодирования : x264 core 115 r1936 7a9e08d
Настройки программы : cabac=1 / ref=4 / deblock=1:-1:-1 / analyse=0x3:0x133 / me=umh / subme=10 / psy=1 / psy_rd=1.00:0.10 / mixed_ref=1 / me_range=24 / chroma_me=1 / trellis=2 / 8x8dct=1 / cqm=0 / deadzone=21,11 / fast_pskip=0 / chroma_qp_offset=-3 / threads=9 / sliced_threads=0 / nr=0 / decimate=1 / interlaced=0 / bluray_compat=0 / constrained_intra=0 / bframes=13 / b_pyramid=2 / b_adapt=2 / b_bias=0 / direct=3 / weightb=1 / open_gop=0 / weightp=2 / keyint=250 / keyint_min=23 / scenecut=40 / intra_refresh=0 / rc_lookahead=50 / rc=2pass / mbtree=1 / bitrate=15000 / ratetol=1.0 / qcomp=0.70 / qpmin=0 / qpmax=69 / qpstep=4 / cplxblur=20.0 / qblur=0.5 / ip_ratio=1.40 / aq=1:1.00
Язык : Russian

Аудио #1
Идентификатор : 2
Формат : DTS
Формат/Информация : Digital Theater Systems
Идентификатор кодека : A_DTS
Продолжительность : 1 ч. 32 м.
Вид битрейта : Постоянный
Битрейт : 755 Кбит/сек
Каналы : 6 каналов
Расположение каналов : Front: L C R, Side: L R, LFE
Частота : 48,0 КГц
Битовая глубина : 24 бит
Метод сжатия : С потерями
Задержка видео : 3 мс.
Размер потока : 498 Мбайт (4%)
Заголовок : Dub
Язык : Russian

Аудио #2
Идентификатор : 3
Формат : AC-3
Формат/Информация : Audio Coding 3
Расширение режима : CM (complete main)
Идентификатор кодека : A_AC3
Продолжительность : 1 ч. 32 м.
Вид битрейта : Постоянный
Битрейт : 384 Кбит/сек
Каналы : 6 каналов
Расположение каналов : Front: L C R, Side: L R, LFE
Частота : 48,0 КГц
Битовая глубина : 16 бит
Метод сжатия : С потерями
Задержка видео : 24 мс.
Размер потока : 254 Мбайт (2%)
Заголовок : MVO, Kinomaniya
Язык : Russian

Аудио #3
Идентификатор : 4
Формат : AC-3
Формат/Информация : Audio Coding 3
Расширение режима : CM (complete main)
Идентификатор кодека : A_AC3
Продолжительность : 1 ч. 32 м.
Вид битрейта : Постоянный
Битрейт : 448 Кбит/сек
Каналы : 6 каналов
Расположение каналов : Front: L C R, Side: L R, LFE
Частота : 48,0 КГц
Битовая глубина : 16 бит
Метод сжатия : С потерями
Размер потока : 296 Мбайт (2%)
Заголовок : Zhivov
Язык : Russian

Аудио #4
Идентификатор : 5
Формат : AC-3
Формат/Информация : Audio Coding 3
Расширение режима : CM (complete main)
Идентификатор кодека : A_AC3
Продолжительность : 1 ч. 32 м.
Вид битрейта : Постоянный
Битрейт : 384 Кбит/сек
Каналы : 2 канала
Расположение каналов : Front: L R
Частота : 48,0 КГц
Битовая глубина : 16 бит
Метод сжатия : С потерями
Размер потока : 254 Мбайт (2%)
Заголовок : Ukrainian
Язык : Ukrainian

Аудио #5
Идентификатор : 6
Формат : DTS
Формат/Информация : Digital Theater Systems
Идентификатор кодека : A_DTS
Продолжительность : 1 ч. 32 м.
Вид битрейта : Постоянный
Битрейт : 1510 Кбит/сек
Каналы : 6 каналов
Расположение каналов : Front: L C R, Side: L R, LFE
Частота : 48,0 КГц
Битовая глубина : 24 бит
Метод сжатия : С потерями
Задержка видео : 3 мс.
Размер потока : 997 Мбайт (8%)
Заголовок : Original
Язык : English

Текст #1
Идентификатор : 7
Формат : UTF-8
Идентификатор кодека : S_TEXT/UTF8
Идентификатор кодека/Информация : UTF-8 Plain Text
Заголовок : Rus Fors
Язык : Russian

Текст #2
Идентификатор : 8
Формат : UTF-8
Идентификатор кодека : S_TEXT/UTF8
Идентификатор кодека/Информация : UTF-8 Plain Text
Заголовок : Rus 1, SRT
Язык : Russian

Текст #3
Идентификатор : 9
Формат : UTF-8
Идентификатор кодека : S_TEXT/UTF8
Идентификатор кодека/Информация : UTF-8 Plain Text
Заголовок : Rus 2, SRT
Язык : Russian

Текст #4
Идентификатор : 10
Формат : UTF-8
Идентификатор кодека : S_TEXT/UTF8
Идентификатор кодека/Информация : UTF-8 Plain Text
Заголовок : English
Язык : English

Качество: BDRip
Формат: MKV
Видео: См. Описание
Звук: См. Описание
Размер: 45.25 GB
Файлов: 3 [Древовидный список] [Линейный список]
Начало раздачи: 4 Марта 2012 в 08:37
Раздает: forbidden