Железный человек 2 [UKR/ENG] / Iron Man 2 [1080p] (2010) BDRip


[Всего голосов: 0    Средний: 0/5]

0 просмотров

Размер: 12.70 GB

Дата: 15.11.2018

Железный человек 2 [UKR/ENG] / Iron Man 2 [1080p] (2010) BDRip

Жанр: фантастика, боевик, приключения
Сюжет: Прошло полгода с тех пор, как мир узнал, что миллиардер-изобретатель Тони Старк является обладателем уникальной кибер-брони Железного человека. Общественность требует, чтобы Старк передал технологию брони правительству США, но Тони не хочет разглашать её секреты, потому что боится, что она попадёт не в те руки. Между тем, Иван Ванко сын русского учёного когда-то работавшего на фирму Старка, но потом уволенного и лишенного всего, намерен отомстить Тони за беды своей семьи. Для чего сооружает своё высокотехнологичное оружие.
Рейтинги:
Рейтинг PG-13 — Детям до 13 лет просмотр не желателенMediaInfoGeneral
Unique ID : 236749510643736643303551170183475624144 (0xB21C4C146ECB9F399DCD18D4F815F8D0)
Complete name : /mnt/disk/Video/Iron Man 2 (2010) [ukr,eng] BDRip 1080p [Hurtom] by Kuzmenko.mkv
Format : Matroska
File size : 12.7 GiB
Duration : 2h 4mn
Overall bit rate : 14.6 Mbps
Movie name : Iron Man 2 (2010) [ukr,eng] BDRip 1080p [Hurtom] by Kuzmenko
Encoded date : UTC 2011-01-24 16:33:08
Writing application : mkvmerge v4.3.0 (‘Escape from the Island’) збірка від Sep 5 2010 10:30:51
Writing library : libebml v1.0.0 + libmatroska v1.0.0

Video
ID : 1
Format : AVC
Format/Info : Advanced Video Codec
Format profile : High@L4.1
Format settings, CABAC : Yes
Format settings, ReFrames : 5 frames
Muxing mode : Header stripping
Codec ID : V_MPEG4/ISO/AVC
Duration : 2h 4mn
Bit rate : 12.4 Mbps
Width : 1 920 pixels
Height : 816 pixels
Display aspect ratio : 2.35:1
Frame rate : 23.976 fps
Color space : YUV
Chroma subsampling : 4:2:0
Bit depth : 8 bits
Scan type : Progressive
Bits/(Pixel*Frame) : 0.330
Stream size : 10.5 GiB (83%)
Title : Iron Man 2 (2010) [ukr,eng] BDRip 1080p [Hurtom] by Kuzmenko
Writing library : x264 core 104 r1703 cd21d05
Encoding settings : cabac=1 / ref=5 / deblock=1:-3:-3 / analyse=0x3:0x113 / me=umh / subme=9 / psy=1 / psy_rd=1.00:0.00 / mixed_ref=1 / me_range=32 / chroma_me=1 / trellis=2 / 8x8dct=1 / cqm=0 / deadzone=21,11 / fast_pskip=0 / chroma_qp_offset=-4 / threads=12 / sliced_threads=0 / nr=0 / decimate=0 / interlaced=0 / constrained_intra=0 / bframes=5 / b_pyramid=2 / b_adapt=2 / b_bias=0 / direct=3 / weightb=1 / open_gop=0 / weightp=2 / keyint=250 / keyint_min=23 / scenecut=40 / intra_refresh=0 / rc=2pass / mbtree=0 / bitrate=12410 / ratetol=1.0 / qcomp=0.60 / qpmin=10 / qpmax=51 / qpstep=4 / cplxblur=20.0 / qblur=0.5 / ip_ratio=1.40 / pb_ratio=1.30 / aq=1:0.90
Language : English

Audio #1
ID : 2
Format : AC-3
Format/Info : Audio Coding 3
Mode extension : CM (complete main)
Muxing mode : Header stripping
Codec ID : A_AC3
Duration : 2h 4mn
Bit rate mode : Constant
Bit rate : 448 Kbps
Channel(s) : 6 channels
Channel positions : Front: L C R, Side: L R, LFE
Sampling rate : 48.0 KHz
Bit depth : 16 bits
Compression mode : Lossy
Delay relative to video : 1s 0ms
Stream size : 399 MiB (3%)
Title : AC3 5.1 @ 448bps Українська — дубляж
Language : Ukrainian

Audio #2
ID : 3
Format : DTS
Format/Info : Digital Theater Systems
Muxing mode : Header stripping
Codec ID : A_DTS
Duration : 2h 4mn
Bit rate mode : Constant
Bit rate : 1 510 Kbps
Channel(s) : 6 channels
Channel positions : Front: L C R, Side: L R, LFE
Sampling rate : 48.0 KHz
Bit depth : 24 bits
Compression mode : Lossy
Stream size : 1.31 GiB (10%)
Title : DTS 5.1 @ 1510 kbps Англійська — оригінал
Language : English

Audio #3
ID : 4
Format : AC-3
Format/Info : Audio Coding 3
Mode extension : CM (complete main)
Muxing mode : Header stripping
Codec ID : A_AC3
Duration : 2h 4mn
Bit rate mode : Constant
Bit rate : 224 Kbps
Channel(s) : 2 channels
Channel positions : Front: L R
Sampling rate : 48.0 KHz
Bit depth : 16 bits
Compression mode : Lossy
Stream size : 200 MiB (2%)
Title : AC3 2.0 @ 224 Kbps Англійська — коментарі
Language : English

Text #1
ID : 5
Format : UTF-8
Codec ID : S_TEXT/UTF8
Codec ID/Info : UTF-8 Plain Text
Title : Аглійські повні
Language : English

Text #2
ID : 6
Format : UTF-8
Codec ID : S_TEXT/UTF8
Codec ID/Info : UTF-8 Plain Text
Title : Англійські коментарі
Language : English

Menu
00:00:00.000 : en:00:00:00.000
00:05:04.304 : en:00:05:04.304
00:11:07.584 : en:00:11:07.584
00:17:59.954 : en:00:17:59.954
00:25:53.010 : en:00:25:53.010
00:30:26.783 : en:00:30:26.783
00:37:33.001 : en:00:37:33.001
00:43:59.637 : en:00:43:59.637
00:51:39.346 : en:00:51:39.346
01:00:10.523 : en:01:00:10.523
01:07:01.517 : en:01:07:01.517
01:16:00.764 : en:01:16:00.764
01:21:13.285 : en:01:21:13.285
01:30:33.553 : en:01:30:33.553
01:38:49.340 : en:01:38:49.340
01:45:41.794 : en:01:45:41.794
01:54:17.350 : en:01:54:17.350Субтитры: английские полные, английские (комментарии) (SRT)
Релиз от:

Качество: BDRip
Формат: MKV
Видео: h264 (High), yuv420p, 1920×816, PAR 1:1 DAR 40:17, 12.4 mbps, 23.98 fps, 23.98 tbr, 1k tbn, 47.95 tbc
Звук: Украинский: AC3, 48000 Hz, 5.1, s16, 448 kb/s / Английский: dca (DTS), 48000 Hz, 5.1, s16, 1536 kb/s / Английский (комментарии режиссера): AC3, 48000 Hz, stereo, s16, 224 kb/s
Размер: 12.70 GB
Файлов: 1 [Древовидный список] [Линейный список]
Релиз группы: Hurtom
Начало раздачи: 27 Августа 2012 в 16:40
Раздает: motsyo