Железный человек [UKR/ENG] / Iron Man [1080p] (2008) BDRip


[Всего голосов: 0    Средний: 0/5]

0 просмотров

Размер: 13.60 GB

Дата: 15.11.2018

Железный человек [UKR/ENG] / Iron Man [1080p] (2008) BDRip

Жанр: фантастика, боевик, триллер, приключения
Сюжет: Миллиардер изобретатель Тони Старк попадает в плен к Афганским террористам, которые пытаются заставить его создать оружие массового поражения. В тайне от своих захватчиков Старк конструирует высокотехнологичную киберброню, которая помогает ему сбежать. Однако по возвращению в США он узнаёт, что в совете директоров его фирмы плетётся заговор, чреватый страшными последствиями. Используя своё последнее изобретение, Старк пытается решить проблемы своей компании радикально…
Рейтинги:
Рейтинг PG-13 — Детям до 13 лет просмотр не желателенMediaInfoGeneral
Unique ID : 232033132920449462354315821590502524021 (0xAE8FF4B46E277A4283D81CD190554475)
Complete name : /mnt/disk/Video/Залізна людина Iron Man (2008) 1080p UkrEng Hurtom.mkv
Format : Matroska
File size : 13.6 GiB
Duration : 2h 6mn
Overall bit rate : 15.4 Mbps
Movie name : HD-Uploaders by -Jackal-
Encoded date : UTC 2011-01-11 16:02:40
Writing application : mkvmerge v3.0.0 (‘Hang up your Hang-Ups’) built on Dec 12 2009 15:20:35
Writing library : libebml v0.7.9 + libmatroska v0.8.1

Video
ID : 1
Format : AVC
Format/Info : Advanced Video Codec
Format profile : High@L4.1
Format settings, CABAC : Yes
Format settings, ReFrames : 5 frames
Codec ID : V_MPEG4/ISO/AVC
Duration : 2h 6mn
Bit rate : 13.5 Mbps
Width : 1 920 pixels
Height : 800 pixels
Display aspect ratio : 2.40:1
Frame rate : 23.976 fps
Color space : YUV
Chroma subsampling : 4:2:0
Bit depth : 8 bits
Scan type : Progressive
Bits/(Pixel*Frame) : 0.367
Stream size : 11.6 GiB (85%)
Title : Iron Man (2008)
Writing library : x264 core 94 r1583 7608d73
Encoding settings : cabac=1 / ref=5 / deblock=1:-3:-3 / analyse=0x3:0x113 / me=tesa / subme=10 / psy=1 / psy_rd=0.90:0.00 / mixed_ref=1 / me_range=16 / chroma_me=1 / trellis=2 / 8x8dct=1 / cqm=0 / deadzone=21,11 / fast_pskip=0 / chroma_qp_offset=-2 / threads=12 / sliced_threads=0 / nr=0 / decimate=0 / interlaced=0 / constrained_intra=0 / bframes=8 / b_pyramid=2 / b_adapt=2 / b_bias=0 / direct=3 / weightb=1 / weightp=2 / keyint=250 / keyint_min=25 / scenecut=40 / intra_refresh=0 / rc=2pass / mbtree=0 / bitrate=13500 / ratetol=1.0 / qcomp=0.60 / qpmin=10 / qpmax=51 / qpstep=4 / cplxblur=20.0 / qblur=0.5 / ip_ratio=1.40 / pb_ratio=1.30 / aq=1:0.65
Language : English

Audio #1
ID : 2
Format : DTS
Format/Info : Digital Theater Systems
Codec ID : A_DTS
Duration : 2h 6mn
Bit rate mode : Constant
Bit rate : 1 510 Kbps
Channel(s) : 6 channels
Channel positions : Front: L C R, Side: L R, LFE
Sampling rate : 48.0 KHz
Bit depth : 24 bits
Compression mode : Lossy
Stream size : 1.33 GiB (10%)
Title : DTS 5.1, 1536 kbps
Language : English

Audio #2
ID : 7
Format : AC-3
Format/Info : Audio Coding 3
Mode extension : CM (complete main)
Codec ID : A_AC3
Duration : 2h 6mn
Bit rate mode : Constant
Bit rate : 448 Kbps
Channel(s) : 6 channels
Channel positions : Front: L C R, Side: L R, LFE
Sampling rate : 48.0 KHz
Bit depth : 16 bits
Compression mode : Lossy
Stream size : 404 MiB (3%)

Text #1
ID : 3
Format : UTF-8
Codec ID : S_TEXT/UTF8
Codec ID/Info : UTF-8 Plain Text
Title : на афганскую речь
Language : Ukrainian

Text #2
ID : 4
Format : UTF-8
Codec ID : S_TEXT/UTF8
Codec ID/Info : UTF-8 Plain Text
Title : R5
Language : Ukrainian

Text #3
ID : 5
Format : UTF-8
Codec ID : S_TEXT/UTF8
Codec ID/Info : UTF-8 Plain Text
Title : на афганскую речь
Language : English

Text #4
ID : 6
Format : UTF-8
Codec ID : S_TEXT/UTF8
Codec ID/Info : UTF-8 Plain Text
Language : English

Menu
00:00:00.000 : :00:00:00.000
00:09:06.171 : :00:09:06.171
00:18:00.579 : :00:18:00.579
00:26:49.942 : :00:26:49.942
00:35:01.850 : :00:35:01.850
00:43:15.259 : :00:43:15.259
00:52:38.489 : :00:52:38.489
00:59:24.644 : :00:59:24.644
01:07:32.423 : :01:07:32.423
01:11:44.300 : :01:11:44.300
01:18:31.206 : :01:18:31.206
01:24:40.575 : :01:24:40.575
01:35:00.111 : :01:35:00.111
01:44:29.346 : :01:44:29.346
01:53:31.471 : :01:53:31.471Субтитры: украинские (на афганскую речь), украинские полные, английские (на афганскую речь), английские полные (SRT)
Релиз от:

Качество: BDRip
Формат: MKV
Видео: h264 (High), yuv420p, 1920×800, PAR 1:1 DAR 12:5, 13.5 mbps, 23.98 fps, 23.98 tbr, 1k tbn, 47.95 tbc
Звук: Украинский: AC3, 48000 Hz, 5.1, s16, 448 kb/s / Английский: dca (DTS), 48000 Hz, 5.1, s16, 1536 kb/s
Размер: 13.60 GB
Файлов: 1 [Древовидный список] [Линейный список]
Релиз группы: Hurtom
Начало раздачи: 27 Августа 2012 в 14:33
Раздает: motsyo