Мстители [UKR/ENG] [1080p 60fps] / The Avengers (2012) BDRip


[Всего голосов: 0    Средний: 0/5]

0 просмотров

Размер: 22.10 GB

Дата: 17.11.2018

Мстители [UKR/ENG] [1080p 60fps] / The Avengers (2012) BDRip

Жанр: фантастика, боевик, приключения
Сюжет: Локи, сводный брат Тора, возвращается, и в этот раз он не один. Земля на грани порабощения, и только лучшие из лучших могут спасти человечество.

Ник Фьюри, глава международной организации Щ. И. Т., собирает выдающихся поборников справедливости и добра, чтобы отразить атаку. Под предводительством Капитана Америки Железный Человек, Тор, Невероятный Халк, Соколиный глаз и Чёрная Вдова вступают в войну с захватчиком.

Рейтинги:
Рейтинг PG-13 — Детям до 13 лет просмотр не желателен
Субтитры: украинские (форсированные + полные), английские (форсированные + полные), программные, мягкие STMediaInfoGeneral
Unique ID : 152867324244707826732562864716802322009 (0x73012CFC84AFB80139A9DBC502CA6E59)
Complete name : /home/kerap/Відео/Фантастика/The.Avengers.2012.BDRip.1800p.60fps.Ukr.Eng.mkv
Format : Matroska
Format version : Version 2
File size : 22.1 GiB
Duration : 2h 22mn
Overall bit rate : 22.1 Mbps
Movie name : The.Avengers.2012.BDRip.1800p.60fps.Ukr.Eng
Encoded date : UTC 2012-10-03 12:42:35
Writing application : mkvmerge v5.1.0 (‘And so it goes’) built on Feb 1 2012 11:31:23
Writing library : libebml v1.2.2 + libmatroska v1.3.0

Video
ID : 1
Format : AVC
Format/Info : Advanced Video Codec
Format profile : High@L4.1
Format settings, CABAC : Yes
Format settings, ReFrames : 8 frames
Codec ID : V_MPEG4/ISO/AVC
Duration : 2h 22mn
Bit rate : 20.0 Mbps
Width : 1 920 pixels
Height : 1 072 pixels
Display aspect ratio : 16:9
Frame rate : 59.940 fps
Color space : YUV
Chroma subsampling : 4:2:0
Bit depth : 8 bits
Scan type : Progressive
Bits/(Pixel*Frame) : 0.162
Stream size : 19.5 GiB (88%)
Writing library : x264 core 120
Encoding settings : cabac=1 / ref=9 / deblock=1:-2:-1 / analyse=0x3:0x133 / me=esa / subme=10 / psy=1 / psy_rd=1,00:0,30 / mixed_ref=1 / me_range=24 / chroma_me=1 / trellis=2 / 8x8dct=1 / cqm=0 / deadzone=21,11 / fast_pskip=0 / chroma_qp_offset=-4 / threads=6 / sliced_threads=0 / nr=0 / decimate=1 / interlaced=0 / bluray_compat=0 / constrained_intra=0 / bframes=8 / b_pyramid=1 / b_adapt=2 / b_bias=0 / direct=3 / weightb=1 / open_gop=0 / weightp=2 / keyint=600 / keyint_min=60 / scenecut=40 / intra_refresh=0 / rc=2pass / mbtree=0 / bitrate=20000 / ratetol=1,0 / qcomp=1,00 / qpmin=3 / qpmax=69 / qpstep=4 / cplxblur=20,0 / qblur=0,5 / ip_ratio=1,40 / pb_ratio=1,30 / aq=2:0,60
Language : English
Default : Yes
Forced : No
Color primaries : BT.709-5, BT.1361, IEC 61966-2-4, SMPTE RP177
Transfer characteristics : BT.709-5, BT.1361
Matrix coefficients : BT.709-5, BT.1361, IEC 61966-2-4 709, SMPTE RP177

Audio #1
ID : 2
Format : AC-3
Format/Info : Audio Coding 3
Mode extension : CM (complete main)
Codec ID : A_AC3
Duration : 2h 22mn
Bit rate mode : Constant
Bit rate : 640 Kbps
Channel(s) : 6 channels
Channel positions : Front: L C R, Side: L R, LFE
Sampling rate : 48.0 KHz
Bit depth : 16 bits
Compression mode : Lossy
Stream size : 654 MiB (3%)
Title : Ukrainian
Language : Ukrainian
Default : Yes
Forced : No

Audio #2
ID : 5
Format : DTS
Format/Info : Digital Theater Systems
Codec ID : A_DTS
Duration : 2h 22mn
Bit rate mode : Constant
Bit rate : 1 510 Kbps
Channel(s) : 6 channels
Channel positions : Front: L C R, Side: L R, LFE
Sampling rate : 48.0 KHz
Bit depth : 24 bits
Compression mode : Lossy
Stream size : 1.51 GiB (7%)
Title : English
Language : English
Default : No
Forced : No

Text #1
ID : 3
Format : UTF-8
Codec ID : S_TEXT/UTF8
Codec ID/Info : UTF-8 Plain Text
Title : Ukrainian (forced)
Language : Ukrainian
Default : Yes
Forced : No

Text #2
ID : 4
Format : UTF-8
Codec ID : S_TEXT/UTF8
Codec ID/Info : UTF-8 Plain Text
Title : Ukrainian Full
Language : Ukrainian
Default : No
Forced : No

Text #3
ID : 6
Format : UTF-8
Codec ID : S_TEXT/UTF8
Codec ID/Info : UTF-8 Plain Text
Title : English (forced)
Language : English
Default : No
Forced : No

Text #4
ID : 7
Format : UTF-8
Codec ID : S_TEXT/UTF8
Codec ID/Info : UTF-8 Plain Text
Title : English Full
Language : English
Default : No
Forced : No

Качество: BDRip
Формат: MKV
Видео: 1920×1072, 20,0 Mbps, 59.94 fps
Звук: Украинский — AC3 5.1, 48000 Гц, 640 кб/с, Английские — DTS 5.1, 48000 Гц, 1510 кб/с
Размер: 22.10 GB
Файлов: 1 [Древовидный список] [Линейный список]
Sample-файл: Скачать
Начало раздачи: 8 Октября 2012 в 14:17
Раздает: motsyo