Папа-досвидос / That’s My Boy [AVC] (2012) BDRip


[Всего голосов: 0    Средний: 0/5]

0 просмотров

Размер: 1.45 GB

Дата: 17.11.2018

Папа-досвидос / That's My Boy [AVC] (2012) BDRip

«Пиво и другие семейные ценности»

Переспав с «очень плохой училкой» прямо в школе, тинейджер становится отцом «по залёту», а его зрелая пассия попадает в тюрьму за совращение малолетнего.
Теперь юный папа-одиночка вынужден заботиться о сыне до его совершеннолетия, а затем благополучно исчезает в неизвестном направлении.
И вот, много лет спустя, оказавшись на мели, эксцентричный папаша-инфантил словно ураган врывается в жизнь сына накануне его свадьбы и своими безумными выходками переворачивает всё вверх дном.

Рейтинг кинокритиков: 21%

Бюджет: $70 000 000.Кассовые сборы: $55 768 976 +

интересные факты• Адам Сэндлер всего лишь на 12 лет старше Энди Сэмберга, который играет роль его сына в фильме.

• Сьюзен Сарандон так же играла мать Энди Сэмберга в телешоу «Субботним вечером в прямом эфире» в эпизодах «Motherlover» и «3-Way (The Golden Rule)» (сцены сделаны для телешоу совместно комедийной группой «The Lonely Island» (участником которой является Сэмберг) и Джастином Тимберлэйком).

• Сьюзен Сарандон так же играла учительницу, у которой были взаимоотношения с несовершеннолетним студентом в сериале «Студия 30», эпизод «Queen of Jordan».

• Машины полиции Бостона перекочевали из того же вымышленного района A-8, который был в фильмах «Город воров» (2010) и «Boston’s Finest» (2010).

• Рекс Райан играет эпизодическую роль фаната команды Патриотов (The Patriots). В реальной жизни он — главный тренер Нью-Йорк Джетс (New York Jets), которые являются основными конкурентами Патриотов.

• Ева Амурри играет «молодую версию» своей реальной матери Сьюзен Сарандон.

• В сцене школьных воспоминаний (в 1984 году) показывают подростка Донни, который несёт коробку для завтрака с надписью «ALF», премьера же сериала состоялась лишь в 1986 году.

• Когда Тодд и Донни посещают Мэри в тюрьме, её оранжевый комбинезон меняется: сначала застёгнут, потом расстёгнут и затем застёгнут снова, до тех пор пока она сама не расстёгивает его.

• Несмотря на то, что Донни холост, у него виден след от обручального кольца на пальце. Это наиболее заметно во время объятий после мальчишника.

Перевод: Профессиональный (дублированный)

временно отсутствует около 1.5 минуты перевода !

Качество видео: BDRip-AVC (Исходник: BluRay)

MediaInfoОбщее
Уникальный идентификатор : 236451772330209827173069728081257819795 (0xB1E2F4729598013A99E9A73AD8B1EE93)
Полное имя : Thats My Boy.2012.BDRip-AVC.mkv
Формат : Matroska
Версия формата : Version 2
Размер файла : 1,45 Гбайт
Продолжительность : 1 ч. 56 м.
Общий поток : 1788 Кбит/сек
Название фильма : Папа-досвидос / That’s My Boy (2012) BDRip-AVC rip by Rulya74
Дата кодирования : UTC 2012-10-12 03:51:20
Программа кодирования : mkvmerge v5.7.0 (‘The Whirlwind’) built on Jul 8 2012 20:08:51
Библиотека кодирования : libebml v1.2.3 + libmatroska v1.3.0

Видео
Идентификатор : 1
Формат : AVC
Формат/Информация : Advanced Video Codec
Профиль формата : High@L4.1
Параметр CABAC формата : Да
Параметр ReFrames формата : 10 кадров
Идентификатор кодека : V_MPEG4/ISO/AVC
Продолжительность : 1 ч. 56 м.
Битрейт : 1403 Кбит/сек
Ширина : 1024 пикселя
Высота : 428 пикселей
Соотношение сторон : 2,40:1
Частота кадров : 23,976 кадра/сек
Цветовое пространство : YUV
Субдискретизация насыщенности : 4:2:0
Битовая глубина : 8 бит
Тип развёртки : Прогрессивная
Бит/(Пиксели*Кадры) : 0.134
Размер потока : 1,11 Гбайт (77%)
Библиотека кодирования : x264 core 128 r2216 198a7ea
Настройки программы : cabac=1 / ref=10 / deblock=1:-1:-1 / analyse=0x3:0x113 / me=umh / subme=10 / psy=1 / psy_rd=1.08:0.10 / mixed_ref=1 / me_range=32 / chroma_me=1 / trellis=2 / 8x8dct=1 / cqm=0 / deadzone=21,11 / fast_pskip=0 / chroma_qp_offset=-3 / threads=6 / lookahead_threads=1 / sliced_threads=0 / nr=0 / decimate=1 / interlaced=0 / bluray_compat=0 / constrained_intra=0 / bframes=9 / b_pyramid=2 / b_adapt=2 / b_bias=0 / direct=3 / weightb=1 / open_gop=0 / weightp=2 / keyint=240 / keyint_min=22 / scenecut=40 / intra_refresh=0 / rc_lookahead=40 / rc=2pass / mbtree=1 / bitrate=1403 / ratetol=1.0 / qcomp=0.60 / qpmin=10 / qpmax=51 / qpstep=4 / cplxblur=20.0 / qblur=0.5 / ip_ratio=1.40 / aq=2:1.00
Default : Да
Forced : Нет

Аудио
Идентификатор : 2
Формат : AC-3
Формат/Информация : Audio Coding 3
Расширение режима : CM (complete main)
Идентификатор кодека : A_AC3
Продолжительность : 1 ч. 56 м.
Вид битрейта : Постоянный
Битрейт : 384 Кбит/сек
Каналы : 6 каналов
Расположение каналов : Front: L C R, Side: L R, LFE
Частота : 48,0 КГц
Битовая глубина : 16 бит
Метод сжатия : С потерями
Размер потока : 319 Мбайт (21%)
Заголовок : Дублированный
Язык : Russian
Default : Да
Forced : Нет

    

Качество: BDRip
Формат: MKV
Видео: H.264, 1024×428 (2,40:1), 23.976 fps, 1403 kbps, 0.134 bit/pixel
Звук: 48 kHz, AC3 Dolby Digital, 3/2 (L,C,R,l,r) + LFE ch, ~384.00 kbps avg
Размер: 1.45 GB
Файлов: 1 [Древовидный список] [Линейный список]
Sample-файл: Скачать
Релиз группы: Автор рипа: Rulya74
Начало раздачи: 12 Октября 2012 в 19:42
Раздает: zjuk