Президент Линкольн: Охотник на вампиров / Abraham Lincoln: Vampire Hunter [AVC] [Ukr] (2012) BDRip


[Всего голосов: 0    Средний: 0/5]

0 просмотров

Размер: 1.84 GB

Дата: 17.11.2018

Президент Линкольн: Охотник на вампиров / Abraham Lincoln: Vampire Hunter [AVC] [Ukr] (2012) BDRip

Жанр: ужасы, фэнтези, боевик, триллер
Сюжет: Сюжет фильма раскрывает тайную жизнь Величайшего Президента Америки Авраама Линкольна — любящего мужа и отца днем и беспощадного убийцу вампиров ночью. Армия кровопийц, которым он бросил вызов, растет с каждым днем. Сможет ли президент великой страны противостоять полчищам вампиров и спасти свою семью и народ от неминуемой гибели?..
Рейтинги:
Рейтинг R — Детям до 17 лет обязательно присутствие родителейMediaInfoGeneral
Unique ID : 37097614761205812211156560707045375486 (0x1BE8BD9F649E7719CD21681A61253DFE)
Complete name : /home/drool/Документы/Видео/Abraham.Lincoln.Vampire.Hunter.2012.Ukr.Dub.BDRip-AVC.mkv
Format : Matroska
File size : 1.84 GiB
Duration : 1h 45mn
Overall bit rate : 2 512 Kbps
Movie name : Президент Лінкольн: Мисливець на вампірів / Abraham Lincoln: Vampire Hunter (2012) BDRip-AVC | video by HQ-ViDEO (Vaippp)
Encoded date : UTC 2012-10-16 07:15:25
Writing application : mkvmerge v4.8.0 (‘I Got The…’) сборка от Aug 22 2011 13:16:28
Writing library : libebml v1.2.0 + libmatroska v1.1.0

Video
ID : 1
Format : AVC
Format/Info : Advanced Video Codec
Format profile : High@L4.1
Format settings, CABAC : Yes
Format settings, ReFrames : 13 frames
Codec ID : V_MPEG4/ISO/AVC
Duration : 1h 45mn
Bit rate : 2 014 Kbps
Width : 1 032 pixels
Height : 430 pixels
Display aspect ratio : 2.40:1
Frame rate : 23.976 fps
Color space : YUV
Chroma subsampling : 4:2:0
Bit depth : 8 bits
Scan type : Progressive
Bits/(Pixel*Frame) : 0.189
Stream size : 1.48 GiB (80%)
Title : Президент Лінкольн: Мисливець на вампірів (by Vaippp)
Writing library : x264 core 128 r2216 198a7ea
Encoding settings : cabac=1 / ref=13 / deblock=1:-2:-1 / analyse=0x3:0x133 / me=umh / subme=10 / psy=1 / psy_rd=1.00:0.05 / mixed_ref=1 / me_range=40 / chroma_me=1 / trellis=2 / 8x8dct=1 / cqm=0 / deadzone=21,11 / fast_pskip=1 / chroma_qp_offset=-3 / threads=12 / lookahead_threads=2 / sliced_threads=0 / nr=0 / decimate=1 / interlaced=0 / bluray_compat=0 / constrained_intra=0 / bframes=12 / b_pyramid=2 / b_adapt=2 / b_bias=0 / direct=1 / weightb=1 / open_gop=0 / weightp=2 / keyint=240 / keyint_min=22 / scenecut=40 / intra_refresh=0 / rc_lookahead=60 / rc=crf / mbtree=0 / crf=18.3 / qcomp=0.73 / qpmin=0 / qpmax=40 / qpstep=4 / vbv_maxrate=50000 / vbv_bufsize=62500 / crf_max=0.0 / nal_hrd=none / ip_ratio=1.30 / pb_ratio=1.25 / aq=1:0.80
Color primaries : BT.709-5, BT.1361, IEC 61966-2-4, SMPTE RP177
Transfer characteristics : BT.709-5, BT.1361
Matrix coefficients : BT.709-5, BT.1361, IEC 61966-2-4 709, SMPTE RP177

Audio
ID : 2
Format : AC-3
Format/Info : Audio Coding 3
Mode extension : CM (complete main)
Codec ID : A_AC3
Duration : 1h 45mn
Bit rate mode : Constant
Bit rate : 448 Kbps
Channel(s) : 6 channels
Channel positions : Front: L C R, Side: L R, LFE
Sampling rate : 48.0 KHz
Bit depth : 16 bits
Compression mode : Lossy
Stream size : 337 MiB (18%)
Title : Українська (дубляж)
Language : UkrainianПроисходжение: видеоряд взят с рипа от

Качество: BDRip
Формат: MKV
Видео: h264 (High), yuv420p, 1032×430 [PAR 1:1 DAR 12:5], 2014 Kbps, 23.98 fps, 23.98 tbr, 1k tbn, 47.95 tbc
Звук: Украинский — AC3, 48000 Hz, 5.1, s16, 448 kb/s
Размер: 1.84 GB
Файлов: 1 [Древовидный список] [Линейный список]
Начало раздачи: 16 Октября 2012 в 14:00
Раздает: motsyo