Цунами 3D / Bait [720p] (2012) BDRip


[Всего голосов: 0    Средний: 0/5]

0 просмотров

Размер: 2.19 GB

Дата: 19.11.2018

Цунами 3D / Bait [720p] (2012) BDRip

«Охота началась»

Чудовищное цунами обрушивается на курортный город.
Из морских глубин на затопленные улицы вырываются голодные и жаждущие крови акулы.
Начинается охота.
Оказавшись в ловушке стихии, чудом уцелевшие люди пытаются выжить. Сможет ли Джош спасти жизнь девушки, которую он всегда любил, но однажды уже потерял ?

сюжет фильмаНа австралийском побережье один из прибрежных спасателей погибает от нападения огромной акулы. Далее действие переносится в большой супермаркет, где одномоментно оказываются самые разные люди, и в том числе два уголовника, желающие ограбить магазин. Но им это не удаётся, поскольку в один миг в океане поднялась огромная волна и обрушилась на берег. Все кто выжил в стенах полузатопленного супермаркета после удара стихи, забираются на стеллажи, и оказываются в смертельной ловушке, поскольку меж стеллажей, серой тенью, плавает та самая акула….
Жанр: Ужасы, Боевик, Триллер.

Рейтинг кинокритиков: 38%

Бюджет: AUD 30 000 000.Кассовые сборы: $25 830 380 +

официальный сайт фильма

Перевод: Профессиональный (полное дублирование)

Качество видео: BDRip 720p (Исходник: Blu-ray)

MediaInfoОбщее
Уникальный идентификатор : 186525143974489787792984550097827186004 (0x8C536F9EC150244885F7CAD138D0C554)
Полное имя : Bait.2012.x264.BDRip.720p.DUB.mkv
Формат : Matroska
Версия формата : Version 2
Размер файла : 2,19 Гбайт
Продолжительность : 1 ч. 33 м.
Общий поток : 3362 Кбит/сек
Дата кодирования : UTC 2012-10-31 15:11:25
Программа кодирования : mkvmerge v5.5.0 (‘Healer’) built on Apr 6 2012 21:43:24
Библиотека кодирования : libebml v1.2.3 + libmatroska v1.3.0

Видео
Идентификатор : 1
Формат : AVC
Формат/Информация : Advanced Video Codec
Профиль формата : High@L3.1
Параметр CABAC формата : Да
Параметр ReFrames формата : 4 кадра
Идентификатор кодека : V_MPEG4/ISO/AVC
Продолжительность : 1 ч. 33 м.
Битрейт : 2978 Кбит/сек
Ширина : 1280 пикселей
Высота : 720 пикселей
Соотношение сторон : 16:9
Частота кадров : 23,976 кадра/сек
Цветовое пространство : YUV
Субдискретизация насыщенности : 4:2:0
Битовая глубина : 8 бит
Тип развёртки : Прогрессивная
Бит/(Пиксели*Кадры) : 0.135
Размер потока : 1,89 Гбайт (87%)
Заголовок : Цунами 3D
Библиотека кодирования : x264 core 128 r2216 198a7ea
Настройки программы : cabac=1 / ref=4 / deblock=1:0:0 / analyse=0x3:0x133 / me=hex / subme=7 / psy=1 / psy_rd=1.00:0.00 / mixed_ref=1 / me_range=16 / chroma_me=1 / trellis=1 / 8x8dct=1 / cqm=0 / deadzone=21,11 / fast_pskip=1 / chroma_qp_offset=-2 / threads=12 / lookahead_threads=2 / sliced_threads=0 / nr=0 / decimate=1 / interlaced=0 / bluray_compat=0 / constrained_intra=0 / bframes=3 / b_pyramid=2 / b_adapt=1 / b_bias=0 / direct=1 / weightb=1 / open_gop=0 / weightp=2 / keyint=240 / keyint_min=23 / scenecut=40 / intra_refresh=0 / rc_lookahead=40 / rc=2pass / mbtree=1 / bitrate=2978 / ratetol=1.0 / qcomp=0.60 / qpmin=10 / qpmax=51 / qpstep=4 / cplxblur=20.0 / qblur=0.5 / ip_ratio=1.40 / aq=1:1.00
Язык : English
Default : Да
Forced : Нет

Аудио
Идентификатор : 2
Формат : AC-3
Формат/Информация : Audio Coding 3
Расширение режима : CM (complete main)
Идентификатор кодека : A_AC3
Продолжительность : 1 ч. 33 м.
Вид битрейта : Постоянный
Битрейт : 384 Кбит/сек
Каналы : 6 каналов
Расположение каналов : Front: L C R, Side: L R, LFE
Частота : 48,0 КГц
Битовая глубина : 16 бит
Метод сжатия : С потерями
Размер потока : 256 Мбайт (11%)
Заголовок : Дубляж
Язык : Russian
Default : Да
Forced : Нет

    

Качество: BDRip
Формат: MKV
Видео: H.264, 1280×720, 2978 Кбит/сек, 23,976 кадр/сек, AVC, 16:9, 0.135 Бит/[Пиксели*Кадры], 2pass
Звук: 48 kHz, AC3 Dolby Digital, 3/2 (L,C,R,l,r) + LFE ch, ~384.00 kbps avg
Размер: 2.19 GB
Файлов: 1 [Древовидный список] [Линейный список]
Sample-файл: Скачать
Релиз группы: R.G. GoldenShara | Автор рипа: Blo
Начало раздачи: 1 Ноября 2012 в 02:54
Раздает: zjuk