Не отпускай меня / Never Let Me Go [720p] (2010) BDRip


[Всего голосов: 0    Средний: 0/5]

0 просмотров

Размер: 2.23 GB

Дата: 19.11.2018

Не отпускай меня / Never Let Me Go [720p] (2010) BDRip

Троица главных героев выросла в интернате и была лишена любого контакта с окружающим миром.
Но со временем друзья узнают, что они на самом деле — клоны, выращиваемые для донорства органов.

Жанр: Фантастика, Драма, Мелодрама.

Рейтинг кинокритиков: 71%

Бюджет: $15 000 000.Кассовые сборы: $9 455 232.

награды и номинацииСатурн, 2011 год.
— Победитель (1):
• Лучший актёр второго плана (Эндрю Гарфилд).
— Номинации (4):
• Лучший научно-фантастический фильм.
• Лучшая актриса (Кэри Маллиган).
• Лучшая актриса второго плана (Кира Найтли).
• Лучший сценарий.

Перевод: Профессиональный (многоголосый)

Качество видео: BDRip 720p (Исходник: Blu-ray)

MediaInfoGeneral
Complete name : Ne.otpuskaj.menja.2010.P.BDRip.720p.[nolimits-team].mkv
Format : Matroska
File size : 2.23 GiB
Duration : 1h 43mn
Overall bit rate : 3 074 Kbps
Movie name : Rip by victordan 95
Encoded date : UTC 2011-07-10 06:50:14
Writing application : mkvmerge v4.6.0 (‘Still Crazy After All These Years’) built on Mar 10 2011 02:50:32
Writing library : libebml v1.2.0 + libmatroska v1.1.0

Video
ID : 1
Format : AVC
Format/Info : Advanced Video Codec
Format profile : High@L4.1
Format settings, CABAC : Yes
Format settings, ReFrames : 6 frames
Muxing mode : Container profile=Unknown@4.1
Codec ID : V_MPEG4/ISO/AVC
Duration : 1h 43mn
Bit rate : 2 629 Kbps
Nominal bit rate : 2 692 Kbps
Width : 1 280 pixels
Height : 546 pixels
Display aspect ratio : 2.35:1
Original display aspect ratio : 2.35:1
Frame rate : 23.976 fps
Resolution : 8 bits
Colorimetry : 4:2:0
Scan type : Progressive
Bits/(Pixel*Frame) : 0.157
Stream size : 1.90 GiB (85%)
Writing library : x264 core 115 r1995 c1e60b9
Encoding settings : cabac=1 / ref=6 / deblock=1:0:0 / analyse=0x3:0x113 / me=umh / subme=8 / psy=1 / psy_rd=1.00:0.00 / mixed_ref=1 / me_range=16 / chroma_me=1 / trellis=1 / 8x8dct=1 / cqm=0 / deadzone=21,11 / fast_pskip=1 / chroma_qp_offset=-2 / threads=3 / sliced_threads=0 / slices=4 / nr=0 / decimate=1 / interlaced=0 / bluray_compat=1 / constrained_intra=0 / bframes=3 / b_pyramid=0 / b_adapt=1 / b_bias=0 / direct=3 / weightb=1 / open_gop=0 / weightp=1 / keyint=24 / keyint_min=1 / scenecut=40 / intra_refresh=0 / rc_lookahead=24 / rc=2pass / mbtree=1 / bitrate=2692 / ratetol=1.0 / qcomp=0.60 / qpmin=0 / qpmax=69 / qpstep=4 / cplxblur=20.0 / qblur=0.5 / vbv_maxrate=15000 / vbv_bufsize=15000 / nal_hrd=vbr / ip_ratio=1.10 / aq=1:1.00

Audio
ID : 2
Format : AC-3
Format/Info : Audio Coding 3
Codec ID : A_AC3
Duration : 1h 43mn
Bit rate mode : Constant
Bit rate : 384 Kbps
Channel(s) : 6 channels
Channel positions : Front: L C R, Surround: L R, LFE
Sampling rate : 48.0 KHz
Stream size : 285 MiB (12%)
Language : Russian

    

Качество: BDRip
Формат: MKV
Видео: H.264, 1280×546, 2 692 Кбит/сек, 23,976 кадр/сек, AVC, 2,35:1, 0.157 Бит/(Пиксели*Кадры)
Звук: 48 kHz, AC3 Dolby Digital, 3/2 (L,C,R,l,r) + LFE ch, ~384.00 kbps avg
Размер: 2.23 GB
Файлов: 1 [Древовидный список] [Линейный список]
Релиз группы: NOLIMITS-TEAM
Начало раздачи: 5 Ноября 2012 в 03:49
Раздает: zjuk