Дружинники / The Watch [1080p] (2012) BDRip


[Всего голосов: 0    Средний: 0/5]

0 просмотров

Размер: 11.91 GB

Дата: 19.11.2018

Дружинники / The Watch [1080p] (2012) BDRip

«Крыша нужна ?»

Сюжет фильма разворачивается вокруг дружной компании соседей, организовавших дружину ради патрулирования окрестностей и поддержания порядка.
В действительности благие намерения были лишь поводом хотя бы изредка сбегать от семьи, дабы покутить вечерком в сугубо мужской компании.
Безоблачная жизнь заканчивается в тот момент, когда соседский дозор случайно узнаёт о заговоре с целью уничтожить мир.

Жанр: Фантастика, Комедия.

Рейтинг кинокритиков: 17%

Бюджет: $68 000 000.Кассовые сборы: $65 860 509 +

интересные факты• Первоначально Дэвид Добкин собирался заниматься режиссурой с Уиллом Ферреллом в главной роли, но из-за ссоры этот дуэт распался летом 2009 года.

• Крис Такер рассматривался на роль Джамаркуса.

• Первоначально фильм был назван «Neighborhood Watch» (Соседский дозор), но название было изменено в связи с событиями связанными с убийством Трэйвона Мартина (он был убит патрульным «соседского дозора» Джорджем Циммерманом).
официальный сайт фильма

Перевод: Профессиональный (дублированный) + Украинский дубляж
+ Оригинал (английский)

Субтитры: Русские, Английские, Украинские. Сохранены оригинальные чаптеры как на Blu-Ray.

Качество видео: BDRip 1080p (Исходник: Blu-Ray)

MediaInfoGeneral
Unique ID : 170193352398163242753215795713296347413 (0x800A0C20910DF907933693CAD678B115)
Complete name : Drujinniki.2012.D.BDRip.1080p.IRONCLUB.mkv
Format : Matroska
Format version : Version 2
File size : 11.9 GiB
Duration : 1h 42mn
Overall bit rate : 16.7 Mbps
Movie name : IRONCLUB
Encoded date : UTC 2012-11-05 22:48:22
Writing application : mkvmerge v4.9.1 (‘Ich will’) built on Jul 11 2011 23:53:15
Writing library : libebml v1.2.1 + libmatroska v1.1.1

Video
ID : 1
Format : AVC
Format/Info : Advanced Video Codec
Format profile : High@L4.1
Format settings, CABAC : Yes
Format settings, ReFrames : 5 frames
Codec ID : V_MPEG4/ISO/AVC
Duration : 1h 42mn
Bit rate : 14.0 Mbps
Width : 1 920 pixels
Height : 816 pixels
Display aspect ratio : 2.35:1
Frame rate : 23.976 fps
Color space : YUV
Chroma subsampling : 4:2:0
Bit depth : 8 bits
Scan type : Progressive
Bits/(Pixel*Frame) : 0.373
Stream size : 9.74 GiB (82%)
Title : The.Watch.2012.1080p.BluRay.x264.DTS-HDChina
Writing library : x264 core 128 r2216+688+33 06dac27 tMod+MixAQ [8-bit@4:2:0 X86_64]
Encoding settings : cabac=1 / ref=5 / deblock=1:-3:-3 / analyse=0x3:0x113 / me=umh / subme=11 / psy=1 / fade_compensate=0.00 / psy_rd=1.15:0.00 / mixed_ref=1 / me_range=48 / chroma_me=1 / trellis=2 / 8x8dct=1 / cqm=0 / deadzone=21,11 / fast_pskip=0 / chroma_qp_offset=-2 / threads=18 / lookahead_threads=3 / sliced_threads=0 / nr=0 / decimate=0 / interlaced=0 / bluray_compat=0 / constrained_intra=0 / fgo=0 / bframes=8 / b_pyramid=2 / b_adapt=2 / b_bias=0 / direct=3 / weightb=1 / open_gop=0 / weightp=2 / keyint=240 / keyint_min=24 / scenecut=40 / intra_refresh=0 / rc_lookahead=240 / rc=2pass / mbtree=1 / bitrate=14000 / ratetol=1.0 / qcomp=0.70 / qpmin=0 / qpmax=69 / qpstep=4 / cplxblur=20.0 / qblur=0.5 / ip_ratio=1.10 / aq=4 / aq-strength=0.90 / aq-sensitivity=10.00 / aq-ifactor=1.00 / aq-pfactor=1.00 / aq-bfactor=1.00 / aq2=0
Language : English
Default : Yes
Forced : Yes

Audio #1
ID : 2
Format : DTS
Format/Info : Digital Theater Systems
Codec ID : A_DTS
Duration : 1h 42mn
Bit rate mode : Constant
Bit rate : 755 Kbps
Channel(s) : 6 channels
Channel positions : Front: L C R, Side: L R, LFE
Sampling rate : 48.0 KHz
Bit depth : 24 bits
Compression mode : Lossy
Stream size : 550 MiB (5%)
Title : DTS 5.1 @ 768 kbps — Dub, BD CEE
Language : Russian
Default : Yes
Forced : Yes

Audio #2
ID : 3
Format : AC-3
Format/Info : Audio Coding 3
Mode extension : CM (complete main)
Codec ID : A_AC3
Duration : 1h 42mn
Bit rate mode : Constant
Bit rate : 448 Kbps
Channel(s) : 6 channels
Channel positions : Front: L C R, Side: L R, LFE
Sampling rate : 48.0 KHz
Bit depth : 16 bits
Compression mode : Lossy
Stream size : 327 MiB (3%)
Title : DD 5.1 @ 448 kbps — Dub, BD CEE
Language : Ukrainian
Default : No
Forced : No

Audio #3
ID : 4
Format : DTS
Format/Info : Digital Theater Systems
Codec ID : A_DTS
Duration : 1h 42mn
Bit rate mode : Constant
Bit rate : 1 510 Kbps
Channel(s) : 6 channels
Channel positions : Front: L C R, Side: L R, LFE
Sampling rate : 48.0 KHz
Bit depth : 24 bits
Compression mode : Lossy
Stream size : 1.08 GiB (9%)
Title : DTS 5.1 @ 1536 kbps
Language : English
Default : No
Forced : No

Text #1
ID : 5
Format : UTF-8
Codec ID : S_TEXT/UTF8
Codec ID/Info : UTF-8 Plain Text
Language : Russian
Default : No
Forced : No

Text #2
ID : 6
Format : UTF-8
Codec ID : S_TEXT/UTF8
Codec ID/Info : UTF-8 Plain Text
Language : Ukrainian
Default : No
Forced : No

Text #3
ID : 7
Format : UTF-8
Codec ID : S_TEXT/UTF8
Codec ID/Info : UTF-8 Plain Text
Language : English
Default : No
Forced : No

Menu
00:00:00.000 : en:00:00:00.000
00:04:17.257 : en:00:04:17.257
00:07:04.507 : en:00:07:04.507
00:09:58.807 : en:00:09:58.807
00:12:23.660 : en:00:12:23.660
00:18:01.747 : en:00:18:01.747
00:20:08.207 : en:00:20:08.207
00:22:10.538 : en:00:22:10.538
00:24:21.001 : en:00:24:21.001
00:29:13.627 : en:00:29:13.627
00:32:18.061 : en:00:32:18.061
00:33:15.911 : en:00:33:15.911
00:37:53.855 : en:00:37:53.855
00:39:25.238 : en:00:39:25.238
00:42:14.532 : en:00:42:14.532
00:47:40.149 : en:00:47:40.149
00:51:35.259 : en:00:51:35.259
00:55:15.020 : en:00:55:15.020
00:57:11.637 : en:00:57:11.637
00:59:47.000 : en:00:59:47.000
01:01:12.919 : en:01:01:12.919
01:05:16.663 : en:01:05:16.663
01:06:48.379 : en:01:06:48.379
01:09:24.160 : en:01:09:24.160
01:12:33.558 : en:01:12:33.558
01:14:26.045 : en:01:14:26.045
01:18:41.675 : en:01:18:41.675
01:20:22.026 : en:01:20:22.026
01:22:05.879 : en:01:22:05.879
01:25:33.295 : en:01:25:33.295
01:28:48.573 : en:01:28:48.573
01:35:36.814 : en:01:35:36.814

    

Качество: BDRip
Формат: MKV
Видео: MPEG-4 AVC, 1920×816 (2.35:1), 23.976 fps, 14 Mbps, 0.373 bit/pixel
Звук: Русский (DTS, 6 ch, 768 Кбит/с), Украинский (AC3, 6 ch, 448 Кбит/с), Английский (DTS, 6 ch, 1510 Кбит/с)
Размер: 11.91 GB
Файлов: 1 [Древовидный список] [Линейный список]
Sample-файл: Скачать
Релиз группы: IRONCLUB
Начало раздачи: 6 Ноября 2012 в 13:07
Раздает: zjuk