Дружинники / The Watch [AVC] (2012) BDRip


[Всего голосов: 0    Средний: 0/5]

0 просмотров

Размер: 2.18 GB

Дата: 19.11.2018

Дружинники / The Watch [AVC] (2012) BDRip

«Крыша нужна ?»

Сюжет фильма разворачивается вокруг дружной компании соседей, организовавших дружину ради патрулирования окрестностей и поддержания порядка.
В действительности благие намерения были лишь поводом хотя бы изредка сбегать от семьи, дабы покутить вечерком в сугубо мужской компании.
Безоблачная жизнь заканчивается в тот момент, когда соседский дозор случайно узнаёт о заговоре с целью уничтожить мир.

Жанр: Фантастика, Комедия.

Рейтинг кинокритиков: 17%

Бюджет: $68 000 000.Кассовые сборы: $65 860 509 +

интересные факты• Первоначально Дэвид Добкин собирался заниматься режиссурой с Уиллом Ферреллом в главной роли, но из-за ссоры этот дуэт распался летом 2009 года.

• Крис Такер рассматривался на роль Джамаркуса.

• Первоначально фильм был назван «Neighborhood Watch» (Соседский дозор), но название было изменено в связи с событиями связанными с убийством Трэйвона Мартина (он был убит патрульным «соседского дозора» Джорджем Циммерманом).
официальный сайт фильма

Перевод: Профессиональный (полное дублирование) + Украинский дубляж
+ Оригинал (английский)

Cубтитры: Русские, Украинские, Английские (отключаемые)

Качество видео: BDRip-AVC (Исходник: Blu-Ray Remux 1080p)

MediaInfoОбщее
Уникальный идентификатор : 216332470220901889521419195402341075790 (0xA2C01E4498333E4080C416F9A1284B4E)
Полное имя : The Watch.2012.BDRip-AVC.mkv
Формат : Matroska
Версия формата : Version 2
Размер файла : 2,18 Гбайт
Продолжительность : 1 ч. 42 м.
Общий поток : 3059 Кбит/сек
Название фильма : Дружинники / The Watch (2012) BDRip-AVC rip by Rulya74
Дата кодирования : UTC 2012-11-07 04:05:45
Программа кодирования : mkvmerge v5.7.0 (‘The Whirlwind’) built on Jul 8 2012 20:08:51
Библиотека кодирования : libebml v1.2.3 + libmatroska v1.3.0

Видео
Идентификатор : 1
Формат : AVC
Формат/Информация : Advanced Video Codec
Профиль формата : High@L4.1
Параметр CABAC формата : Да
Параметр ReFrames формата : 7 кадров
Идентификатор кодека : V_MPEG4/ISO/AVC
Продолжительность : 1 ч. 42 м.
Битрейт : 1905 Кбит/сек
Ширина : 1024 пикселя
Высота : 436 пикселей
Соотношение сторон : 2,35:1
Частота кадров : 23,976 кадра/сек
Цветовое пространство : YUV
Субдискретизация насыщенности : 4:2:0
Битовая глубина : 8 бит
Тип развёртки : Прогрессивная
Бит/(Пиксели*Кадры) : 0.178
Размер потока : 1,31 Гбайт (60%)
Библиотека кодирования : x264 core 128 r2216 198a7ea
Настройки программы : cabac=1 / ref=7 / deblock=1:-1:-1 / analyse=0x3:0x113 / me=umh / subme=7 / psy=1 / psy_rd=1.09:0.08 / mixed_ref=1 / me_range=16 / chroma_me=1 / trellis=2 / 8x8dct=1 / cqm=0 / deadzone=21,11 / fast_pskip=0 / chroma_qp_offset=-3 / threads=4 / lookahead_threads=1 / sliced_threads=0 / nr=0 / decimate=1 / interlaced=0 / bluray_compat=0 / constrained_intra=0 / bframes=6 / b_pyramid=2 / b_adapt=2 / b_bias=0 / direct=3 / weightb=1 / open_gop=0 / weightp=2 / keyint=240 / keyint_min=22 / scenecut=40 / intra_refresh=0 / rc_lookahead=40 / rc=2pass / mbtree=1 / bitrate=1905 / ratetol=1.0 / qcomp=0.60 / qpmin=10 / qpmax=51 / qpstep=4 / cplxblur=20.0 / qblur=0.5 / ip_ratio=1.40 / aq=2:1.00
Default : Да
Forced : Нет

Аудио #1
Идентификатор : 2
Формат : AC-3
Формат/Информация : Audio Coding 3
Расширение режима : CM (complete main)
Идентификатор кодека : A_AC3
Продолжительность : 1 ч. 42 м.
Вид битрейта : Постоянный
Битрейт : 384 Кбит/сек
Каналы : 6 каналов
Расположение каналов : Front: L C R, Side: L R, LFE
Частота : 48,0 КГц
Битовая глубина : 16 бит
Метод сжатия : С потерями
Размер потока : 280 Мбайт (13%)
Заголовок : Дублированный
Язык : Russian
Default : Да
Forced : Нет

Аудио #2
Идентификатор : 3
Формат : AC-3
Формат/Информация : Audio Coding 3
Расширение режима : CM (complete main)
Идентификатор кодека : A_AC3
Продолжительность : 1 ч. 42 м.
Вид битрейта : Постоянный
Битрейт : 384 Кбит/сек
Каналы : 6 каналов
Расположение каналов : Front: L C R, Side: L R, LFE
Частота : 48,0 КГц
Битовая глубина : 16 бит
Метод сжатия : С потерями
Размер потока : 280 Мбайт (13%)
Заголовок : Дублированный
Язык : Ukrainian
Default : Нет
Forced : Нет

Аудио #3
Идентификатор : 4
Формат : AC-3
Формат/Информация : Audio Coding 3
Расширение режима : CM (complete main)
Идентификатор кодека : A_AC3
Продолжительность : 1 ч. 42 м.
Вид битрейта : Постоянный
Битрейт : 384 Кбит/сек
Каналы : 6 каналов
Расположение каналов : Front: L C R, Side: L R, LFE
Частота : 48,0 КГц
Битовая глубина : 16 бит
Метод сжатия : С потерями
Размер потока : 280 Мбайт (13%)
Заголовок : Оригинал
Язык : English
Default : Нет
Forced : Нет

Текст #1
Идентификатор : 5
Формат : UTF-8
Идентификатор кодека : S_TEXT/UTF8
Идентификатор кодека/Информация : UTF-8 Plain Text
Язык : Russian
Default : Да
Forced : Нет

Текст #2
Идентификатор : 6
Формат : UTF-8
Идентификатор кодека : S_TEXT/UTF8
Идентификатор кодека/Информация : UTF-8 Plain Text
Язык : Ukrainian
Default : Нет
Forced : Нет

Текст #3
Идентификатор : 7
Формат : UTF-8
Идентификатор кодека : S_TEXT/UTF8
Идентификатор кодека/Информация : UTF-8 Plain Text
Язык : English
Default : Нет
Forced : Нет

Меню
00:00:00.000 : :Chapter 01
00:04:17.257 : :Chapter 03
00:07:04.507 : :Chapter 05
00:09:58.806 : :Chapter 07
00:12:23.659 : :Chapter 09
00:18:01.747 : :Chapter 11
00:20:08.207 : :Chapter 13
00:22:10.537 : :Chapter 15
00:24:21.001 : :Chapter 17
00:29:13.626 : :Chapter 19
00:32:18.061 : :Chapter 21
00:33:15.910 : :Chapter 23
00:37:53.854 : :Chapter 25
00:39:25.237 : :Chapter 27
00:42:14.532 : :Chapter 29
00:47:40.148 : :Chapter 31
00:51:35.258 : :Chapter 33
00:55:15.020 : :Chapter 35
00:57:11.636 : :Chapter 37
00:59:47.000 : :Chapter 39
01:01:12.919 : :Chapter 41
01:05:16.662 : :Chapter 43
01:06:48.379 : :Chapter 45
01:09:24.160 : :Chapter 47
01:12:33.557 : :Chapter 49
01:14:26.044 : :Chapter 51
01:18:41.675 : :Chapter 53
01:20:22.025 : :Chapter 55
01:22:05.879 : :Chapter 57
01:25:33.294 : :Chapter 59
01:28:48.573 : :Chapter 61
01:35:36.814 : :Chapter 63
01:41:56.777 : :Chapter 64

    

Качество: BDRip
Формат: MKV
Видео: H.264, 1024×436 (2.35:1), 23.976 fps, ~1905 kbps avg, 0.178 bit/pixel
Звук: 48 kHz, AC3 Dolby Digital, 3/2 (L,C,R,l,r) + LFE ch, ~384.00 kbps avg |все дорожки|
Размер: 2.18 GB
Файлов: 1 [Древовидный список] [Линейный список]
Sample-файл: Скачать
Релиз группы: Автор рипа: Rulya74
Начало раздачи: 7 Ноября 2012 в 17:51
Раздает: zjuk