Дружинники / The Watch [720p] (2012) BDRip


[Всего голосов: 0    Средний: 0/5]

0 просмотров

Размер: 2.19 GB

Дата: 19.11.2018

Дружинники / The Watch [720p] (2012) BDRip

«Крыша нужна ?»

Сюжет фильма разворачивается вокруг дружной компании соседей, организовавших дружину ради патрулирования окрестностей и поддержания порядка.
В действительности благие намерения были лишь поводом хотя бы изредка сбегать от семьи, дабы покутить вечерком в сугубо мужской компании.
Безоблачная жизнь заканчивается в тот момент, когда соседский дозор случайно узнаёт о заговоре с целью уничтожить мир.

Жанр: Фантастика, Комедия.

Рейтинг кинокритиков: 17%

Бюджет: $68 000 000.Кассовые сборы: $65 860 509 +

интересные факты• Первоначально Дэвид Добкин собирался заниматься режиссурой с Уиллом Ферреллом в главной роли, но из-за ссоры этот дуэт распался летом 2009 года.

• Крис Такер рассматривался на роль Джамаркуса.

• Первоначально фильм был назван «Neighborhood Watch» (Соседский дозор), но название было изменено в связи с событиями связанными с убийством Трэйвона Мартина (он был убит патрульным «соседского дозора» Джорджем Циммерманом).
официальный сайт фильма

Перевод: Профессиональный (полное дублирование)

Качество видео: BDRip 720p (Исходник: Blu-Ray)

MediaInfoОбщее
Уникальный идентификатор : 224967745442102492254969080705007453865 (0xA93F36350A2FF07583379B9D335F86A9)
Полное имя : The.Watch.2012.x264.BDRip.720p.DUB.mkv
Формат : Matroska
Версия формата : Version 2
Размер файла : 2,19 Гбайт
Продолжительность : 1 ч. 42 м.
Общий поток : 3072 Кбит/сек
Дата кодирования : UTC 2012-11-06 20:27:48
Программа кодирования : mkvmerge v5.5.0 (‘Healer’) built on Apr 6 2012 21:43:24
Библиотека кодирования : libebml v1.2.3 + libmatroska v1.3.0

Видео
Идентификатор : 1
Формат : AVC
Формат/Информация : Advanced Video Codec
Профиль формата : High@L3.1
Параметр CABAC формата : Да
Параметр ReFrames формата : 4 кадра
Идентификатор кодека : V_MPEG4/ISO/AVC
Продолжительность : 1 ч. 42 м.
Битрейт : 2687 Кбит/сек
Ширина : 1280 пикселей
Высота : 544 пикселя
Соотношение сторон : 2,35:1
Соотношение сторон в оригинале : 2,35:1
Частота кадров : 23,976 кадра/сек
Цветовое пространство : YUV
Субдискретизация насыщенности : 4:2:0
Битовая глубина : 8 бит
Тип развёртки : Прогрессивная
Бит/(Пиксели*Кадры) : 0.161
Размер потока : 1,87 Гбайт (86%)
Заголовок : Дружинники
Библиотека кодирования : x264 core 128 r2216 198a7ea
Настройки программы : cabac=1 / ref=4 / deblock=1:0:0 / analyse=0x3:0x133 / me=hex / subme=7 / psy=1 / psy_rd=1.00:0.00 / mixed_ref=1 / me_range=16 / chroma_me=1 / trellis=1 / 8x8dct=1 / cqm=0 / deadzone=21,11 / fast_pskip=1 / chroma_qp_offset=-2 / threads=12 / lookahead_threads=2 / sliced_threads=0 / nr=0 / decimate=1 / interlaced=0 / bluray_compat=0 / constrained_intra=0 / bframes=3 / b_pyramid=2 / b_adapt=1 / b_bias=0 / direct=1 / weightb=1 / open_gop=0 / weightp=2 / keyint=240 / keyint_min=23 / scenecut=40 / intra_refresh=0 / rc_lookahead=40 / rc=2pass / mbtree=1 / bitrate=2687 / ratetol=1.0 / qcomp=0.60 / qpmin=10 / qpmax=51 / qpstep=4 / cplxblur=20.0 / qblur=0.5 / ip_ratio=1.40 / aq=1:1.00
Язык : English
Default : Да
Forced : Нет

Аудио
Идентификатор : 2
Формат : AC-3
Формат/Информация : Audio Coding 3
Расширение режима : CM (complete main)
Идентификатор кодека : A_AC3
Продолжительность : 1 ч. 42 м.
Вид битрейта : Постоянный
Битрейт : 384 Кбит/сек
Каналы : 6 каналов
Расположение каналов : Front: L C R, Side: L R, LFE
Частота : 48,0 КГц
Битовая глубина : 16 бит
Метод сжатия : С потерями
Размер потока : 280 Мбайт (12%)
Заголовок : Дубляж
Язык : Russian
Default : Да
Forced : Нет

    

Качество: BDRip
Формат: MKV
Видео: H.264, 1280×544, 2687 Кбит/сек, 23,976 кадр/сек, AVC, 2,35:1, 0.161 Бит/[Пиксели*Кадры], 2pass
Звук: 48 kHz, AC3 Dolby Digital, 3/2 (L,C,R,l,r) + LFE ch, ~384.00 kbps avg
Размер: 2.19 GB
Файлов: 1 [Древовидный список] [Линейный список]
Sample-файл: Скачать
Релиз группы: R.G. GoldenShara | Автор рипа: Blo
Начало раздачи: 7 Ноября 2012 в 01:04
Раздает: zjuk