Обычное дело / Звичайна справа [AVC] [Ukr] (2012) DVDRip


[Всего голосов: 0    Средний: 0/5]

0 просмотров

Размер: 1.40 GB

Дата: 03.12.2018

Обычное дело / Звичайна справа [AVC] [Ukr] (2012) DVDRip

Жанр: драма, комедия
Сюжет: Главного героя, потомственного врача Толика, выгоняют с работы за драку с пациентами. Герой считает это событие хорошим знаком, чтобы начать новую жизнь. Наконец-то сбудется его мечта стать «свободным» поэтом, а если повезёт — даже известным, ведь стихи он пишет действительно неплохие. Очень приятно, что в этот момент рядом окажется старый друг Славик, который знает многое: в чём смысл жизни, как заработать денег, как стать счастливым. Он втягивает героя в ряд абсурдных ситуаций, в которых Толик теряет почти всё, что имел. Но именно драматические ситуации с семьёй и приключения со Славиком станут толчком к написанию действительно красивых стихов, которые затем войдут в сборник.
Рейтинги: x264 Infox264 [info]: frame I:725 Avg QP:15.90 size: 44879 PSNR Mean Y:49.63 U:53.79 V:53.55 Avg:50.58 Global:49.74
x264 [info]: frame P:27270 Avg QP:18.22 size: 20928 PSNR Mean Y:46.90 U:51.61 V:51.41 Avg:47.93 Global:46.98
x264 [info]: frame B:97251 Avg QP:20.48 size: 8002 PSNR Mean Y:45.92 U:51.30 V:51.19 Avg:47.04 Global:46.04
x264 [info]: consecutive B-frames: 3.1% 2.6% 6.3% 21.9% 23.9% 10.0% 8.8% 8.3% 13.2% 1.9%
x264 [info]: mb I I16..4: 9.6% 75.6% 14.9%
x264 [info]: mb P I16..4: 1.6% 19.0% 1.5% P16..4: 20.2% 22.4% 14.3% 3.4% 0.5% skip:17.0%
x264 [info]: mb B I16..4: 0.2% 3.0% 0.1% B16..8: 22.4% 15.4% 3.5% direct:10.7% skip:44.6% L0:36.9% L1:38.3% BI:24.8%
x264 [info]: 8×8 transform intra:86.2% inter:60.2%
x264 [info]: direct mvs spatial:97.6% temporal:2.4%
x264 [info]: coded y,uvDC,uvAC intra: 85.8% 77.5% 51.4% inter: 30.2% 22.9% 2.9%
x264 [info]: i16 v,h,dc,p: 47% 24% 6% 23%
x264 [info]: i8 v,h,dc,ddl,ddr,vr,hd,vl,hu: 21% 14% 23% 6% 6% 7% 5% 9% 9%
x264 [info]: i4 v,h,dc,ddl,ddr,vr,hd,vl,hu: 20% 11% 8% 8% 12% 14% 9% 10% 9%
x264 [info]: i8c dc,h,v,p: 37% 27% 26% 10%
x264 [info]: Weighted P-Frames: Y:8.7% UV:4.3%
x264 [info]: ref P L0: 50.8% 12.1% 15.4% 7.7% 5.4% 4.0% 3.0% 1.4% 0.2% 0.0%
x264 [info]: ref B L0: 82.2% 9.3% 4.3% 1.9% 1.2% 0.8% 0.3%
x264 [info]: ref B L1: 94.5% 5.5%
x264 [info]: SSIM Mean Y:0.9876297 (19.076db)
x264 [info]: PSNR Mean Y:46.159 U:51.383 V:51.254 Avg:47.259 Global:46.247 kb/s:2206.01MediaInfoGeneral
Unique ID : 201715844856057259788125092041618783058 (0x97C10EFF8774F0D34A9B9015A59A7B52)
Complete name : /mnt/disk/Video/Business.As.Usual.2013.Ukr.Orig.DVDRip-AVC.Uaget.mkv
Format : Matroska
File size : 1.40 GiB
Duration : 1h 23mn
Overall bit rate : 2 400 Kbps
Movie name : Звичайна справа (2012) DVDRip-AVC | -=UAGet=-
Encoded date : UTC 2013-10-22 04:58:56
Writing application : mkvmerge v4.8.0 (‘I Got The…’) сборка от Aug 22 2011 13:16:28
Writing library : libebml v1.2.0 + libmatroska v1.1.0

Video
ID : 1
Format : AVC
Format/Info : Advanced Video Codec
Format profile : High@L4.1
Format settings, CABAC : Yes
Format settings, ReFrames : 8 frames
Codec ID : V_MPEG4/ISO/AVC
Duration : 1h 23mn
Bit rate : 2 207 Kbps
Width : 720 pixels
Height : 462 pixels
Display aspect ratio : 16:9
Original display aspect ratio : 16:9
Frame rate : 25.000 fps
Color space : YUV
Chroma subsampling : 4:2:0
Bit depth : 8 bits
Scan type : Progressive
Bits/(Pixel*Frame) : 0.265
Stream size : 1.26 GiB (90%)
Title : Звичайна справа (2012) DVDRip-AVC | -=UAGet=-
Writing library : x264 core 130 r2273 b3065e6
Encoding settings : cabac=1 / ref=9 / deblock=1:-3:-3 / analyse=0x3:0x133 / me=tesa / subme=11 / psy=1 / psy_rd=1.00:0.20 / mixed_ref=1 / me_range=32 / chroma_me=1 / trellis=2 / 8x8dct=1 / cqm=0 / deadzone=21,11 / fast_pskip=0 / chroma_qp_offset=-3 / threads=6 / lookahead_threads=1 / sliced_threads=0 / nr=0 / decimate=1 / interlaced=0 / bluray_compat=0 / constrained_intra=0 / bframes=9 / b_pyramid=1 / b_adapt=2 / b_bias=0 / direct=3 / weightb=1 / open_gop=0 / weightp=2 / keyint=250 / keyint_min=25 / scenecut=40 / intra_refresh=0 / rc=2pass / mbtree=0 / bitrate=2207 / ratetol=1.0 / qcomp=1.00 / qpmin=0 / qpmax=69 / qpstep=4 / cplxblur=20.0 / qblur=0.5 / ip_ratio=1.40 / pb_ratio=1.30 / aq=2:0.60
Language : Ukrainian
Color primaries : BT.601-6 525, BT.1358 525, BT.1700 NTSC, SMPTE 170M
Transfer characteristics : BT.709-5, BT.1361
Matrix coefficients : BT.601-6 525, BT.1358 525, BT.1700 NTSC, SMPTE 170M

Audio
ID : 2
Format : AC-3
Format/Info : Audio Coding 3
Mode extension : CM (complete main)
Codec ID : A_AC3
Duration : 1h 23mn
Bit rate mode : Constant
Bit rate : 192 Kbps
Channel(s) : 2 channels
Channel positions : Front: L R
Sampling rate : 48.0 KHz
Bit depth : 16 bits
Compression mode : Lossy
Stream size : 115 MiB (8%)
Title : Українська (оригінал) AC3 2.0 192 kbps
Language : UkrainianРелиз от:

Качество: DVDRip
Формат: MKV
Видео: h264 (High), 720×462@852×462, 2207 kbps, 25 fps
Звук: Украинский — AC3, 48000 Hz, stereo, s16, 192 kb/s
Размер: 1.40 GB
Файлов: 1 [Древовидный список] [Линейный список]
Sample-файл: Скачать
Релиз группы: UAGet
Начало раздачи: 22 Октября 2013 в 10:18
Раздает: motsyo