Слушатель [AVC] (2004) DVDRip


[Всего голосов: 0    Средний: 0/5]

0 просмотров

Размер: 2.29 GB

Дата: 04.12.2018

Слушатель [AVC] (2004) DVDRip

Жанр: комедия, мелодрама
Сюжет: Жизнь 32-летнего президента преуспевающей фирмы Сергея Петрова рушится в одночасье. Он теряет все: деньги, социальное положение, дом, семью, работу — и оказывается на улице.

Однажды, скитаясь по городу, герой встречает своего бывшего однокурсника, а ныне мелкого жулика Кулему. Вместе с ним Петров приходит в бюро по трудоустройству, где ему предлагают работу… «Слушателя». Так он попадает в семью Федуловых, где и начинает «работать» — выслушивать брань и оскорбления всех обитателей дома, не рискующих открыто высказываться друг перед другом.

Вскоре в доме появляется старшая дочь Федуловых — Марина, сбежавшая от подлеца-мужа. Стычки Петрова с Мариной незаметно перерастают в нечто иное… И когда беды и неприятности героев доходят до предела, когда все буквально подходят к грани отчаяния, как это всегда и бывает в новогоднюю ночь, свершается чудо…

Открываются неожиданные факты, которые круто меняют ход событий и дарят героям долгожданное счастье!
Рейтинги:
Рейтинг R — Лицам до 17 лет обязательно присутствие взрослогоMediaInfoGeneral
Unique ID : 299825673955110717558996076603975466275 (0xE19053090920D6D69EFDC6391D20FD23)
Complete name : /mnt/disk/Video/Slushatel.2004.Rus.Orig.DVDRip-AVC.UAGet.mkv
Format : Matroska
File size : 2.29 GiB
Duration : 1h 32mn
Overall bit rate : 3 551 Kbps
Movie name : Слушатель (2004) DVDRip-AVC | -=UAGet=-
Encoded date : UTC 2013-11-13 13:20:13
Writing application : mkvmerge v4.8.0 (‘I Got The…’) сборка от Aug 22 2011 13:16:28
Writing library : libebml v1.2.0 + libmatroska v1.1.0

Video
ID : 1
Format : AVC
Format/Info : Advanced Video Codec
Format profile : High@L4.1
Format settings, CABAC : Yes
Format settings, ReFrames : 7 frames
Codec ID : V_MPEG4/ISO/AVC
Duration : 1h 32mn
Bit rate : 3 256 Kbps
Width : 710 pixels
Height : 468 pixels
Display aspect ratio : 16:9
Original display aspect ratio : 16:9
Frame rate mode : Variable
Frame rate : 25.000 fps
Color space : YUV
Chroma subsampling : 4:2:0
Bit depth : 8 bits
Scan type : Progressive
Bits/(Pixel*Frame) : 0.392
Stream size : 2.10 GiB (92%)
Title : Слушатель (2004) DVDRip-AVC | -=UAGet=-
Writing library : x264 core 130 r2273 b3065e6
Encoding settings : cabac=1 / ref=8 / deblock=1:-3:-3 / analyse=0x3:0x133 / me=umh / subme=11 / psy=1 / psy_rd=1.00:0.20 / mixed_ref=1 / me_range=32 / chroma_me=1 / trellis=2 / 8x8dct=1 / cqm=0 / deadzone=21,11 / fast_pskip=0 / chroma_qp_offset=-3 / threads=6 / lookahead_threads=1 / sliced_threads=0 / nr=0 / decimate=1 / interlaced=0 / bluray_compat=0 / constrained_intra=0 / bframes=8 / b_pyramid=1 / b_adapt=2 / b_bias=0 / direct=3 / weightb=1 / open_gop=0 / weightp=2 / keyint=250 / keyint_min=25 / scenecut=40 / intra_refresh=0 / rc=crf / mbtree=0 / crf=19.0 / qcomp=1.00 / qpmin=0 / qpmax=69 / qpstep=4 / ip_ratio=1.40 / pb_ratio=1.30 / aq=2:0.60
Language : Russian
Color primaries : BT.601-6 525, BT.1358 525, BT.1700 NTSC, SMPTE 170M
Transfer characteristics : BT.709-5, BT.1361
Matrix coefficients : BT.601-6 525, BT.1358 525, BT.1700 NTSC, SMPTE 170M

Audio
ID : 2
Format : AC-3
Format/Info : Audio Coding 3
Mode extension : CM (complete main)
Codec ID : A_AC3
Duration : 1h 32mn
Bit rate mode : Constant
Bit rate : 224 Kbps
Channel(s) : 6 channels
Channel positions : Front: L C R, Side: L R, LFE
Sampling rate : 48.0 KHz
Bit depth : 16 bits
Compression mode : Lossy
Stream size : 148 MiB (6%)
Title : AC3, 48000 Hz, 5.1, s16, 224 kb/s
Language : RussianРелиз от:

Качество: DVDRip
Формат: MKV
Видео: h264 (High), 710×468@842×468, 3256 kbps, 25 fps
Звук: AC3, 48000 Hz, 5.1, s16, 224 kb/s
Размер: 2.29 GB
Файлов: 1 [Древовидный список] [Линейный список]
Релиз группы: UAGet
Начало раздачи: 14 Ноября 2013 в 09:53
Раздает: motsyo