Трилогия Мести : Сочувствие господину Месть, Олдбой, Сочувствие госпоже Месть / The Vengeance Trilogy: Sympathy for Mr. Vengeance, Oldboy, Lady Vengeance (2002, 2003, 2005) [720p] (2005) BDRip

[Всего: 0   Средний:  0/5]

[Sassy_Social_Share]

15 просмотров

Размер: 27.99 GB

Дата: 06.12.2018

Можно ли оправдать месть?

По закону – сложно, по-человечески – возможно. Какой самый страшный и жестокий в мире суд? Суд Линча, к которому прибегают одержимые яростью и жаждой мести люди, за что потом несут заслуженное законное наказание. Но вряд-ли найдется человек, который не сможет понять мести отца, который наказал обидчика своего ребенка. По закону – снова преступление, по-человечески – как раз понятно, но мстителя это все равно не оправдывает.

На этот неоднозначный вопрос решил ответить южнокорейский режиссер Пак Чхан-ук, сняв свою трилогию о мести, в которую вошли три несвязанных единым сюжетом фильма. Общее у них только одно – холодная и расчетливая месть, которая подается под разным видом, но эффект от нее всегда один и тот же – полное опустошение.
Рецензия
Сочувствие господину Месть.
Первая работа трилогии, как обычно в таких случаях бывает это своего рода проба пера. Режиссёр пробует себя на новом поприще, создаёт что-то уникальное, которое в будущем станет чем-то больше, чем три фильма объединённые одной темой. Пак очень осторожно подошёл к созданию "Господина Месть", но уже здесь мы видим его будущий почерк, приёмы, которые в дальнейшем станут его фишкой. Это удивительные кадры, на протяжении пары минут, которые засасывают вас, так что глаз не оторвать. Это и жестокость происходящего, справедливость, если так можно выразиться, героям приходится платить так или иначе за всё что они сделали плохого, хоть и случайно. Монотонность повествования, которая сначала немного утомляет, зато после два оставшихся фильма проходят просто на "ура".
В этом фильме, к сожалению нет интересных актёрских работ, но это не главное, а главное сюжет, который просто великолепен. А то, что чем закончится история, добавляет изюминку, и наблюдать за происходящим становится в разы интереснее. И конечно же запоминающийся финал, над которым тоже сидишь разинув род, кто бы мог подумать, что Ёнг-ми говорила правду.
============================================================================
Олдбой.
Наверное самый известный фильм Чхан-ук Пака, и наверное самый сильный. Здесь всё идеально, история, такая витеиватая и запутанная, что без пол литра не разобраться) (хотя у меня появились подозрения по поводу дочери, ведь не могло всё произойти настолько случайно). Великолепная картинка, тут куча сцен, которые можно пересматривать по несколько раз и продолжать любоваться. Чего стоит только сцена, где О Дэ-су разбирается с охраниками, его проход по коридору, напомнило сцену из Kill Bill, где невеста мочит 88 бешеных. Саундтрек, который местами так нагнетает обстановку, что слёзы так и льют градом. Мозгоразрывающий финал, который вроде бомбы замедленного действия, в самый нужный момент производит эффект неожиданости и удивления. Давно меня фильмы не оставляли так долго сидеть перед экраном с открытым ртом после просмотра. Ну и конечно же это мощнейшие актёрские работы, от Мин-Сик Чои и Цзи Тэ Ю, они и после Олдбоя, продолжали радовать, но здесь это просто вершина их игры.
В общем, эта безусловно самая сильная часть трилогии, и один из самых значимых фильмов нулевых.
============================================================================
Сочувствие госпоже Месть.
А вот с этим фильмом не всё так идеально. При всём при том, что это наверное самый красивый фильм трилогии, но при этом самый слабый в плане сценария и истории. Здесь великолепные краски, чего стоит контраст белого и красного, макияж Кэм Джа, начальная заставка, за неё фильму можно накинуть сразу пару баллов. Так же это необычный приём, когда фильм начинается с ярких красок, и ближе к финалу краски потихоньку исчезают, а сам финал уже снят чёрно-белым, лишь брелоки, символизирующие убиенных детей показаны в цвете. Этот фильм похож на дилогию мести от маэстро Квентина, да женская месть оригинальна и наиболее извращена, этим она и страшна. Но всё равно история почему-то не захватывает, и сам финал оставляет немного недоумения, а надо было ли всё это, а принесла ли расплата облегчение родителям и героине. Ещё одним плюсом картины является актриса Энг-е Ли, действительно красивая женщина, азиатские актрисы редко на меня производят сильное впечатление, но Энг-е Ли удалось. Её актёрская работа не так хороша как у того же Мик-Сик Чои, которого мы здесь тоже увидели, хотя роль его получилась размытая, и не вызывает бурю эмоций после просмотра, но вот забыть эту актрису удастся не скоро.
В общем, слабоватое завершение трилогии вышло, хотя в плане картинке здесь придраться не к чему, Пак видимо уже рукку набил, и забрасывает зрителя великолепными пейзажами и сценами.
Подводя итог, можно сказать, что трилогия мести Чхан-ук Пака, это знаковое событие в современном кинематографе, и ознакомится с ней я настоятельно рекомендую, хоть и первый с третим фильмом проигрывают Олдбою по накалу. Но чтоб составить своё индивидуальное мнение с ней стоит ознакомится. Постер большого размера: 1200 × 1405

Сочувствие господину Месть / Sympathy For Mr. Vengeance / Boksuneun naui geot (2002) BDRip [720p]
Дата мировой премьеры: 29 марта 2002 | Дата РФ премьеры: 22 февраля 2007, «Кино без границ»

Описание фильма:
История глухонемого Рю и его сестры, которой нужно пересадить почку. Начальник Рю, Пак, только что уволил его, и Рю со своей подружкой решают похитить дочь Пака, чтобы на полученный выкуп сделать трансплантацию. Но все идет катастрофически не так, и ситуация очень скоро перерастает в лавину насилия и мести…

Производство: Южная Корея
Год выпуска: 2002
Жанр: Триллер, Драма, Криминал
Продолжительность: 02:01:04
Качество видео: BDRip
Перевод: Многоголосый закадровый, Двухголосый закадровый
Язык субтитров: Русские (Cinema Prestige), Русские (Tycoon), Русские (комментарии), Английские, Английские (комментарии)
Вид субтитров: Вшитые

Видеокодек: MPEG-4 AVC/H.264
Битрейт видео: ~ 8888 kbps
Размер кадра: 1280×560
Аудио 1: AC3 5.1, 448 kbps | Russian (Двухголосый закадровый, Tycoon-Studio)
Аудио 2: DTS 5.1, 755 kbps | Russian (Многоголосый закадровый, Cinema Prestige)
Аудио 3: DTS 5.1, 1509 kbps | Korean
Награды и номинации• 2003 — Кинофестиваль Fant-Asia
• Лучший азиатский фильм — Пак Чхан Ук
• 2003 — Кинофестиваль в Филадельфии
• Приз жюри за лучший фильм — Пак Чхан Ук Знаете ли вы, что…• Оригинальное корейское название означает «Мстить буду я», но для международного проката название поменяли, чтобы фильм не путали с другой, японской картиной с аналогичным названием.
• Поначалу Чхан-Ук Пак хотел сделать, чтобы цвета в картине постепенно пропадали, и фильм превращался в чёрно-белый к финальной сцене.
• После успеха «Объединённой зоны безопасности» Чхан-Ук Паку дали карт-бланш на съёмки любого фильма, который ему хочется, и он решил снять кино о мести, которую считает самой интересной темой на Земле. Он долго искал сценарий, а потом решил вернуться к своей старой идее, и написать сценарий самому.
• Сценарий картины был написан за 20 часов непрерывной работы. MediaInfo
Format : Matroska
Format version : Version 4 / Version 2
File size : 9.83 GiB
Duration : 2h 1mn
Overall bit rate : 11.6 Mbps
Encoded date : UTC 2013-08-17 23:27:41
Writing application : mkvmerge v6.3.0 (‘You can’t stop me!’) built on Jun 28 2013 20:09:41
Writing library : libebml v1.3.0 + libmatroska v1.4.0

Video
ID : 1
Format : AVC
Format/Info : Advanced Video Codec
Format profile : High@L3.2
Format settings, CABAC : Yes
Format settings, ReFrames : 4 frames
Codec ID : V_MPEG4/ISO/AVC
Bit rate : 8 888 Kbps
Width : 1 280 pixels
Height : 560 pixels
Display aspect ratio : 2.25:1
Frame rate mode : Variable
Original frame rate : 23.976 fps
Color space : YUV
Chroma subsampling : 4:2:0
Bit depth : 8 bits
Scan type : Progressive
Bits/(Pixel*Frame) : 0.517
Title : video
Writing library : x264 core 123 r2189 35cf912
Encoding settings : cabac=1 / ref=3 / deblock=1:0:0 / analyse=0x3:0x133 / me=hex / subme=7 / psy=1 / psy_rd=1.00:0.00 / mixed_ref=1 / me_range=16 / chroma_me=1 / trellis=1 / 8x8dct=1 / cqm=0 / deadzone=21,11 / fast_pskip=1 / chroma_qp_offset=-2 / threads=12 / sliced_threads=0 / nr=0 / decimate=1 / interlaced=0 / bluray_compat=0 / constrained_intra=0 / bframes=3 / b_pyramid=2 / b_adapt=1 / b_bias=0 / direct=1 / weightb=1 / open_gop=0 / weightp=2 / keyint=250 / keyint_min=25 / scenecut=40 / intra_refresh=0 / rc_lookahead=40 / rc=2pass / mbtree=1 / bitrate=8888 / ratetol=1.0 / qcomp=0.60 / qpmin=10 / qpmax=51 / qpstep=4 / cplxblur=20.0 / qblur=0.5 / ip_ratio=1.40 / aq=1:1.00
Language : English
Default : Yes
Forced : No

Audio #1
ID : 2
Format : AC-3
Format/Info : Audio Coding 3
Mode extension : CM (complete main)
Format settings, Endianness : Big
Codec ID : A_AC3
Duration : 2h 1mn
Bit rate mode : Constant
Bit rate : 448 Kbps
Channel(s) : 6 channels
Channel positions : Front: L C R, Side: L R, LFE
Sampling rate : 48.0 KHz
Bit depth : 16 bits
Compression mode : Lossy
Delay relative to video : 333ms
Stream size : 388 MiB (4%)
Title : 3/2+1
Language : Russian
Default : Yes
Forced : No

Audio #2
ID : 3
Format : DTS
Format/Info : Digital Theater Systems
Mode : 16
Format settings, Endianness : Big
Codec ID : A_DTS
Duration : 2h 1mn
Bit rate mode : Constant
Bit rate : 755 Kbps
Channel(s) : 6 channels
Channel positions : Front: L C R, Side: L R, LFE
Sampling rate : 48.0 KHz
Bit depth : 24 bits
Compression mode : Lossy
Delay relative to video : 333ms
Stream size : 653 MiB (6%)
Title : 3/2+1
Language : Russian
Default : No
Forced : No

Audio #3
ID : 4
Format : DTS
Format/Info : Digital Theater Systems
Mode : 16
Format settings, Endianness : Big
Codec ID : A_DTS
Duration : 2h 1mn
Bit rate mode : Constant
Bit rate : 1 509 Kbps
Channel(s) : 6 channels
Channel positions : Front: L C R, Side: L R, LFE
Sampling rate : 48.0 KHz
Bit depth : 16 bits
Compression mode : Lossy
Delay relative to video : 333ms
Stream size : 1.28 GiB (13%)
Title : 3/2+1
Language : Korean
Default : No
Forced : No

Text #1
ID : 5
Format : PGS
Muxing mode : zlib
Codec ID : S_HDMV/PGS
Codec ID/Info : The same subtitle format used on BDs/HD-DVDs
Title : s1
Language : Russian
Default : No
Forced : No

Text #2
ID : 6
Format : PGS
Muxing mode : zlib
Codec ID : S_HDMV/PGS
Codec ID/Info : The same subtitle format used on BDs/HD-DVDs
Title : s2
Language : Russian
Default : No
Forced : No

Text #3
ID : 7
Format : PGS
Muxing mode : zlib
Codec ID : S_HDMV/PGS
Codec ID/Info : The same subtitle format used on BDs/HD-DVDs
Title : s3
Language : Russian
Default : No
Forced : No

Text #4
ID : 8
Format : PGS
Muxing mode : zlib
Codec ID : S_HDMV/PGS
Codec ID/Info : The same subtitle format used on BDs/HD-DVDs
Title : s4
Language : English
Default : No
Forced : No

Text #5
ID : 9
Format : PGS
Muxing mode : zlib
Codec ID : S_HDMV/PGS
Codec ID/Info : The same subtitle format used on BDs/HD-DVDs
Title : s5
Language : English
Default : No
Forced : No

Menu
00:00:00.000 : en:Chapter 01
00:08:20.541 : en:Chapter 02
00:15:12.745 : en:Chapter 03
00:22:04.031 : en:Chapter 04
00:29:22.969 : en:Chapter 05
00:37:14.315 : en:Chapter 06
00:45:00.698 : en:Chapter 07
00:54:05.992 : en:Chapter 08
01:01:53.000 : en:Chapter 09
01:09:03.472 : en:Chapter 10
01:15:15.469 : en:Chapter 11
01:21:08.196 : en:Chapter 12
01:27:39.295 : en:Chapter 13
01:33:55.004 : en:Chapter 14
01:43:40.047 : en:Chapter 15
01:52:23.111 : en:Chapter 16

Олдбой / OldBoy / Oldeuboi (2003) BDRip [720p]
Дата мировой премьеры: 21 ноября 2003 | Дата РФ премьеры: 18 ноября 2004, «Кино без границ»

Описание фильма:
1988 год. Обычного человека по имени О Дэ-су, заботливого отца и любящего мужа, похищают прямо по дороге домой. Он приходит в себя в странном помещении, представляющем собой импровизированную тюрьму. Дэ-су мучается вопросом «за что», но не находит ответа. Спустя год в новостях он видит репортаж о гибели своей жены. Самое страшное, что убийцей считают его. После пятнадцати лет заточения бедняга, наконец, выходит на свободу…

Производство: Южная Корея
Год выпуска: 2003
Жанр: Триллер, Драма, Криминал
Продолжительность: 01:59:57
Качество видео: BDRip
Перевод: Дублированный, Двухголосый закадровый
Язык субтитров: Русские (Cinema Prestige), Русские (Tycoon), Русские (комментарии), Английские, Английские (комментарии)
Вид субтитров: Вшитые

Видеокодек: MPEG-4 AVC/H.264
Битрейт видео: ~ 8888 kbps
Размер кадра: 1280×560
Аудио 1: AC3 5.1, 448 kbps | Russian (Двухголосый закадровый, Tycoon-Studio)
Аудио 2: AC3 5.1, 384 kbps | Russian (Дублированный, Cinema Prestige)
Аудио 3: DTS 5.1, 768 kbps | Korean
Награды и номинации• 2005 — Кинофестиваль в Бангкоке
• Лучший режиссер — Пак Чхан Ук
• 2004 — Каннский кинофестиваль
• Гран-при жюри — Пак Чхан Ук
• 2004 — «Большой колокол» Южной Кореи (главная кинонаграда, южно-корейский «Оскар»)
• лучший режиссер — Пак Чхан Ук
• лучший актер — Чхой Мин Cик
• лучший монтаж — Ким Сан Бом
• лучшая музыка — Чо Ён Ук
• лучший свет
Номинации
• 2006 — Премия «Сатурн»
• Лучший фильм в жанре экшн/приключения/триллер
• 2005 — Кинофестиваль в Бангкоке
• Лучший фильм — Пак Чхан Ук
• 2004 — Каннский кинофестиваль
• «Золотая пальмовая ветвь» — Пак Чхан Ук
• 2004 — Премия «European Film Awards»
• Международная награда — Пак Чхан Ук Знаете ли вы, что…• Для роли в фильме Мин-Сик Чои шесть недель усиленно тренировался в спортзале и похудел на 10 кг, после чего сам выполнял почти все трюки на съёмках.
• Фраза «Смейся, и весь мир будет смеяться вместе с тобой. Заплачь — и ты заплачешь в одиночестве», что неоднократно звучит в фильме, является цитатой из поэмы «Одиночество» американской поэтессы Эммы Уилкокс
• В Корее действительно едят живых осьминогов, как это делает главный герой в суши-баре сразу после освобождения. Правда, их перед этим обычно режут на кусочки. Завоевав Гран-при на Каннском кинофестивале, режиссёр в публичной речи поблагодарил осьминога наравне с актёрами и съёмочной группой.
• Актёр Чой Мин Сик — буддист, и перед поеданием живого осьминога должен был помолиться. Были сделаны два дубля и, соответственно, съедены два осьминога.
• Знаменитая сцена драки в коридоре тюрьмы была действительно снята одним кадром. На съёмки сцены ушло три дня, и в ней практически не используется компьютерная графика. На компьютере был нарисован лишь нож, торчащий из спины О Де Су.
• В сцене танца О Де Су с игрушечными крыльями в полицейском участке актёр Чой Мин Сик просил оператора, чтобы в кадр попали его ноги — он хотел сымитировать знаменитую «лунную походку» Майкла Джексона.
• «Олдбой» на самом деле переводится как «Одноклассник», именно в названии находится главная загадка всего фильма. MediaInfo
Format : Matroska
Format version : Version 4 / Version 2
File size : 53.4 MiB
Duration : 1h 59mn
Overall bit rate : 62.3 Kbps
Encoded date : UTC 2013-08-17 23:10:38
Writing application : mkvmerge v6.3.0 (‘You can’t stop me!’) built on Jun 28 2013 20:09:41
Writing library : libebml v1.3.0 + libmatroska v1.4.0

Video
ID : 1
Format : AVC
Format/Info : Advanced Video Codec
Format profile : High@L3.2
Format settings, CABAC : Yes
Format settings, ReFrames : 4 frames
Codec ID : V_MPEG4/ISO/AVC
Duration : 1h 59mn
Nominal bit rate : 8 888 Kbps
Width : 1 280 pixels
Height : 560 pixels
Display aspect ratio : 2.25:1
Frame rate mode : Constant
Frame rate : 23.976 fps
Color space : YUV
Chroma subsampling : 4:2:0
Bit depth : 8 bits
Scan type : Progressive
Bits/(Pixel*Frame) : 0.517
Title : video
Writing library : x264 core 123 r2189 35cf912
Encoding settings : cabac=1 / ref=3 / deblock=1:0:0 / analyse=0x3:0x133 / me=hex / subme=7 / psy=1 / psy_rd=1.00:0.00 / mixed_ref=1 / me_range=16 / chroma_me=1 / trellis=1 / 8x8dct=1 / cqm=0 / deadzone=21,11 / fast_pskip=1 / chroma_qp_offset=-2 / threads=12 / sliced_threads=0 / nr=0 / decimate=1 / interlaced=0 / bluray_compat=0 / constrained_intra=0 / bframes=3 / b_pyramid=2 / b_adapt=1 / b_bias=0 / direct=1 / weightb=1 / open_gop=0 / weightp=2 / keyint=250 / keyint_min=25 / scenecut=40 / intra_refresh=0 / rc_lookahead=40 / rc=2pass / mbtree=1 / bitrate=8888 / ratetol=1.0 / qcomp=0.60 / qpmin=10 / qpmax=51 / qpstep=4 / cplxblur=20.0 / qblur=0.5 / ip_ratio=1.40 / aq=1:1.00
Language : English
Default : Yes
Forced : No

Audio #1
ID : 2
Format : AC-3
Format/Info : Audio Coding 3
Mode extension : CM (complete main)
Format settings, Endianness : Big
Codec ID : A_AC3
Duration : 1h 59mn
Bit rate mode : Constant
Bit rate : 448 Kbps
Channel(s) : 6 channels
Channel positions : Front: L C R, Side: L R, LFE
Sampling rate : 48.0 KHz
Bit depth : 16 bits
Compression mode : Lossy
Stream size : 384 MiB
Title : 3/2+1
Language : Russian
Default : Yes
Forced : No

Audio #2
ID : 3
Format : AC-3
Format/Info : Audio Coding 3
Mode extension : CM (complete main)
Format settings, Endianness : Big
Codec ID : A_AC3
Duration : 1h 59mn
Bit rate mode : Constant
Bit rate : 384 Kbps
Channel(s) : 6 channels
Channel positions : Front: L C R, Side: L R, LFE
Sampling rate : 48.0 KHz
Bit depth : 16 bits
Compression mode : Lossy
Stream size : 329 MiB
Title : 3/2+1
Language : Russian
Default : No
Forced : No

Audio #3
ID : 4
Format : DTS
Format/Info : Digital Theater Systems
Format profile : ES
Mode : 16
Format settings, Endianness : Big
Codec ID : A_DTS
Duration : 1h 59mn
Bit rate mode : Constant
Bit rate : 768 Kbps
Channel(s) : 6 channels
Channel positions : Front: L C R, Side: L R, LFE
Sampling rate : 48.0 KHz
Bit depth : 16 bits
Compression mode : Lossy
Stream size : 659 MiB
Title : 3/2+1
Language : Korean
Default : No
Forced : No

Text #1
ID : 5
Format : PGS
Muxing mode : zlib
Codec ID : S_HDMV/PGS
Codec ID/Info : The same subtitle format used on BDs/HD-DVDs
Title : s1
Language : Russian
Default : No
Forced : No

Text #2
ID : 6
Format : PGS
Muxing mode : zlib
Codec ID : S_HDMV/PGS
Codec ID/Info : The same subtitle format used on BDs/HD-DVDs
Title : s2
Language : Russian
Default : No
Forced : No

Text #3
ID : 7
Format : PGS
Muxing mode : zlib
Codec ID : S_HDMV/PGS
Codec ID/Info : The same subtitle format used on BDs/HD-DVDs
Title : s3
Language : Russian
Default : No
Forced : No

Text #4
ID : 8
Format : PGS
Muxing mode : zlib
Codec ID : S_HDMV/PGS
Codec ID/Info : The same subtitle format used on BDs/HD-DVDs
Title : s4
Language : Russian
Default : No
Forced : No

Text #5
ID : 9
Format : PGS
Muxing mode : zlib
Codec ID : S_HDMV/PGS
Codec ID/Info : The same subtitle format used on BDs/HD-DVDs
Title : s5
Language : Russian
Default : No
Forced : No

Text #6
ID : 10
Format : PGS
Muxing mode : zlib
Codec ID : S_HDMV/PGS
Codec ID/Info : The same subtitle format used on BDs/HD-DVDs
Title : s6
Language : English
Default : No
Forced : No

Text #7
ID : 11
Format : PGS
Muxing mode : zlib
Codec ID : S_HDMV/PGS
Codec ID/Info : The same subtitle format used on BDs/HD-DVDs
Title : s7
Language : English
Default : No
Forced : No

Text #8
ID : 12
Format : PGS
Muxing mode : zlib
Codec ID : S_HDMV/PGS
Codec ID/Info : The same subtitle format used on BDs/HD-DVDs
Title : s8
Language : English
Default : No
Forced : No

Text #9
ID : 13
Format : PGS
Muxing mode : zlib
Codec ID : S_HDMV/PGS
Codec ID/Info : The same subtitle format used on BDs/HD-DVDs
Title : s9
Language : English
Default : No
Forced : No

Menu
00:00:00.000 : en:Chapter 01
00:05:58.941 : en:Chapter 02
00:12:05.933 : en:Chapter 03
00:17:36.555 : en:Chapter 04
00:28:40.802 : en:Chapter 05
00:33:57.410 : en:Chapter 06
00:42:37.054 : en:Chapter 07
00:47:36.603 : en:Chapter 08
00:52:45.537 : en:Chapter 09
01:00:59.781 : en:Chapter 10
01:12:36.685 : en:Chapter 11
01:19:26.803 : en:Chapter 12
01:29:10.303 : en:Chapter 13
01:40:01.036 : en:Chapter 14
01:47:06.378 : en:Chapter 15
01:57:36.382 : en:Chapter 16

Сочувствие госпоже Месть / Sympathy For Lady Vengeance / Chinjeolhan geumjassi (2005) BDRip [720p]
Дата мировой премьеры: 29 июля 2005 | Дата РФ премьеры: 15 февраля 2007, «Кино без границ»

Описание фильма:
Кэм Чжа Ли в 19 лет попадает в тюрьму за похищение и убийство ребенка по ложному обвинению. В тюрьме она вынашивает план мести и завоевывает сердца заключенных собственной добротой, получив имя «Сердечная госпожа Кэм Чжа». Отсидев 13 лет, Кэм Чжа отправляется разыскивать предателя с помощью ее давних тюремных товарищей.

Производство: Южная Корея
Год выпуска: 2005
Жанр: Триллер, Драма, Криминал
Продолжительность: 01:55:11
Качество видео: BDRip
Перевод: Дублированный, Двухголосый закадровый
Язык субтитров: Русские (Cinema Prestige), Русские (Tycoon), Русские (комментарии), Английские, Английские (комментарии)
Вид субтитров: Вшитые

Видеокодек: MPEG-4 AVC/H.264
Битрейт видео: ~ 8888 kbps
Размер кадра: 1280×560
Аудио 1: AC3 5.1, 384 kbps | Russian (Двухголосый закадровый, Tycoon-Studio)
Аудио 2: DTS 5.1, 755 kbps | Russian (Дублированный, Cinema Prestige)
Аудио 3: DTS 5.1, 1509 kbps | Korean
Награды и номинации• Венецианский кинофестиваль 2005 года («Малый золотой лев», режиссёр Пак Чхан Ук)
• Венецианский кинофестиваль 2005 года (премия CinemAvvenire, режиссёр Пак Чхан Ук)
• Международный кинофестиваль в Бангкоке 2005 года (премия «Золотая канарейка», режиссёр Пак Чхан Ук)
• Испанский кинофестиваль 2005 года («Лучшая актриса», Ли Ёнъэ)
• Кинофестиваль в Ситжесе 2005 года («Лучшая актриса», Ли Ёнъэ)
• Премия Fantasporto 2006 года («Лучший фильм», Пак Чхан Ук)
Знаете ли вы, что…• В оригинале название фильма переводится как «Добросердечная госпожа Гём Джа».
• Существует так же «режиссерская» версия картины отличающая от прокатной тем, что фильм в самом начале бывший цветным постепенно «выцветает» и к завершению становится черно-белым. MediaInfo
Format : Matroska
Format version : Version 4 / Version 2
File size : 9.30 GiB
Duration : 1h 55mn
Overall bit rate : 11.6 Mbps
Encoded date : UTC 2013-08-17 22:41:53
Writing application : mkvmerge v6.3.0 (‘You can’t stop me!’) built on Jun 28 2013 20:09:41
Writing library : libebml v1.3.0 + libmatroska v1.4.0

Video
ID : 1
Format : AVC
Format/Info : Advanced Video Codec
Format profile : High@L3.2
Format settings, CABAC : Yes
Format settings, ReFrames : 4 frames
Codec ID : V_MPEG4/ISO/AVC
Bit rate : 8 888 Kbps
Width : 1 280 pixels
Height : 560 pixels
Display aspect ratio : 2.25:1
Frame rate mode : Variable
Original frame rate : 23.976 fps
Color space : YUV
Chroma subsampling : 4:2:0
Bit depth : 8 bits
Scan type : Progressive
Bits/(Pixel*Frame) : 0.517
Title : video
Writing library : x264 core 123 r2189 35cf912
Encoding settings : cabac=1 / ref=3 / deblock=1:0:0 / analyse=0x3:0x133 / me=hex / subme=7 / psy=1 / psy_rd=1.00:0.00 / mixed_ref=1 / me_range=16 / chroma_me=1 / trellis=1 / 8x8dct=1 / cqm=0 / deadzone=21,11 / fast_pskip=1 / chroma_qp_offset=-2 / threads=12 / sliced_threads=0 / nr=0 / decimate=1 / interlaced=0 / bluray_compat=0 / constrained_intra=0 / bframes=3 / b_pyramid=2 / b_adapt=1 / b_bias=0 / direct=1 / weightb=1 / open_gop=0 / weightp=2 / keyint=250 / keyint_min=25 / scenecut=40 / intra_refresh=0 / rc_lookahead=40 / rc=2pass / mbtree=1 / bitrate=8888 / ratetol=1.0 / qcomp=0.60 / qpmin=10 / qpmax=51 / qpstep=4 / cplxblur=20.0 / qblur=0.5 / ip_ratio=1.40 / aq=1:1.00
Language : English
Default : Yes
Forced : No

Audio #1
ID : 2
Format : AC-3
Format/Info : Audio Coding 3
Mode extension : CM (complete main)
Format settings, Endianness : Big
Codec ID : A_AC3
Duration : 1h 55mn
Bit rate mode : Constant
Bit rate : 384 Kbps
Channel(s) : 6 channels
Channel positions : Front: L C R, Side: L R, LFE
Sampling rate : 48.0 KHz
Bit depth : 16 bits
Compression mode : Lossy
Delay relative to video : 333ms
Stream size : 316 MiB (3%)
Title : 3/2+1
Language : Russian
Default : Yes
Forced : No

Audio #2
ID : 3
Format : DTS
Format/Info : Digital Theater Systems
Mode : 16
Format settings, Endianness : Big
Codec ID : A_DTS
Duration : 1h 55mn
Bit rate mode : Constant
Bit rate : 755 Kbps
Channel(s) : 6 channels
Channel positions : Front: L C R, Side: L R, LFE
Sampling rate : 48.0 KHz
Bit depth : 24 bits
Compression mode : Lossy
Delay relative to video : 333ms
Stream size : 622 MiB (7%)
Title : 3/2+1
Language : Russian
Default : No
Forced : No

Audio #3
ID : 4
Format : DTS
Format/Info : Digital Theater Systems
Mode : 16
Format settings, Endianness : Big
Codec ID : A_DTS
Duration : 1h 55mn
Bit rate mode : Constant
Bit rate : 1 509 Kbps
Channel(s) : 6 channels
Channel positions : Front: L C R, Side: L R, LFE
Sampling rate : 48.0 KHz
Bit depth : 16 bits
Compression mode : Lossy
Delay relative to video : 333ms
Stream size : 1.21 GiB (13%)
Title : 3/2+1
Language : Korean
Default : No
Forced : No

Text #1
ID : 5
Format : PGS
Muxing mode : zlib
Codec ID : S_HDMV/PGS
Codec ID/Info : The same subtitle format used on BDs/HD-DVDs
Title : s1
Language : Russian
Default : No
Forced : No

Text #2
ID : 6
Format : PGS
Muxing mode : zlib
Codec ID : S_HDMV/PGS
Codec ID/Info : The same subtitle format used on BDs/HD-DVDs
Title : s2
Language : Russian
Default : No
Forced : No

Text #3
ID : 7
Format : PGS
Muxing mode : zlib
Codec ID : S_HDMV/PGS
Codec ID/Info : The same subtitle format used on BDs/HD-DVDs
Title : s3
Language : English
Default : No
Forced : No

Text #4
ID : 8
Format : PGS
Muxing mode : zlib
Codec ID : S_HDMV/PGS
Codec ID/Info : The same subtitle format used on BDs/HD-DVDs
Title : s4
Language : Russian
Default : No
Forced : No

Text #5
ID : 9
Format : PGS
Muxing mode : zlib
Codec ID : S_HDMV/PGS
Codec ID/Info : The same subtitle format used on BDs/HD-DVDs
Title : s5
Language : Russian
Default : No
Forced : No

Menu
00:00:00.000 : en:Chapter 01
00:10:12.278 : en:Chapter 02
00:15:47.488 : en:Chapter 03
00:20:44.034 : en:Chapter 04
00:26:50.859 : en:Chapter 05
00:34:13.092 : en:Chapter 06
00:41:50.883 : en:Chapter 07
00:50:39.995 : en:Chapter 08
00:59:56.718 : en:Chapter 09
01:07:23.914 : en:Chapter 10
01:19:57.918 : en:Chapter 11
01:24:45.205 : en:Chapter 12
01:32:41.430 : en:Chapter 13
01:39:15.449 : en:Chapter 14
01:46:10.781 : en:Chapter 15
01:51:38.817 : en:Chapter 16

Качество: BDRip
Формат: MKV
Видео: Смотрите в описании
Звук: Смотрите в описании
Размер: 27.99 GB
Файлов: 3 [Древовидный список] [Линейный список]
Начало раздачи: 4 Января 2014 в 01:27
Раздает: RockyStar5